1 сезон

1 сезон

iTunes

1

КиноПоиск HD

Кинопоиск HD

iTunes

13

1 сезон

RePack

30

Ultimate

ВАЖНО

ИГРА 18+

pack

RePack

MK11
pack

Легкие деньги

RePack

jed

RePack

fifa19

RePack

RDR2

RePack

NEED FOR SPEED™ PAYBACK

4 сезон

9 сезон

Бесстыжие 9 сезон

Все сериалы

все сериалы на PB.wtf

RePack

FAR CRY 5
  
Magnet ссылка

Хозяин морей: На краю Земли / Master and Commander: The Far Side of the World (Питер Уир) [2003 г., боевик, драма, приключения, военный, HDRip, Дубляж, Лицензия] pb.wtf

Хозяин морей: На краю Земли через торрент pb.wtf

Размер: 2.59 GB | Добавлен: 6 лет 4 мес. назад | Торрент скачан:373 раза
Скачать  

17-11-2014 17:20 Хозяин морей: На краю Земли Скачать торрент  

Хозяин морей: На краю Земли / Master and Commander: The Far Side of the WorldГод выпуска: 2003
Страна: США
Жанр: боевик, драма, приключения, военный
Продолжительность: 02:18:20
Перевод: Дубляж, Лицензия
Субтитры: Нет

Режиссер: Питер Уир
Продюссер: Сэмюэл Голдуин мл., Дункан Хендерсон, Питер Уир
Сценарий: Питер Уир, Джон Колли, Патрик О’Брайан

Бюджет: $150 000 000
Премьера в мире: 14 ноября 2003



В ролях: Расселл Кроу, Пол Беттани, Джеймс Д'Арси, Эдвард Вудбол, Крис Ларкин, Макс Паркис

Описание: Действие фильма разворачивается во время наполеоновских войн. Военный парусник Ее Величества «Сюрприз», бороздящий просторы Атлантики, был неожиданно атакован огромным неизвестным кораблем, появившимся из тумана. Благодаря смелости и находчивости команды «Сюрпризу» удается уйти от смерти. Несмотря на тяжелые повреждения и потери, капитан Джек Обри по прозвищу Счастливчик принимает решение преследовать врага и устремляется в погоню, которая уведет его на край света. На кону репутация Джека, его жизнь и жизнь его команды…

Качество: HDRip | BDRip720p
Формат: AVI
Видео кодек: XviD
Аудио кодек: AC3
Видео: 720x304 (2.37:1), 23.976 fps, XviD MPEG-4 ~2228 kbps avg, 0.42 bit/pixel
Аудио#1: 48 kHz, AC3 Dolby Digital, 3/2 (L,C,R,l,r) + LFE ch, ~448 kbps


Автор рипа: Dean24
скриншот  скриншот  
скриншот  скриншот  

Общее:
Полное имя: D:\Для сайта\Rip's\Master.and.Commander.The.Far.Side.of.the.World.HDRip.avi
Формат: AVI
Формат/Информация: Audio Video Interleave
Профиль формата: OpenDML
Размер файла: 2,59 Гбайт
Продолжительность: 2 ч. 18 м.
Общий поток: 2683 Кбит/сек
Библиотека кодирования: VirtualDub build 35491/release

Видео:
Идентификатор: 0
Формат: MPEG-4 Visual
Профиль формата: Advanced Simple@L5
Параметр BVOP формата: 2
Параметр QPel формата: Нет
Параметр GMC формата: Без точки перехода
Параметр матрицы формата: Default (H.263)
Режим смешивания: Сжатый битовый поток
Идентификатор кодека: XVID
Идентификатор кодека/Подсказка: XviD
Продолжительность: 2 ч. 18 м.
Битрейт: 2224 Кбит/сек
Ширина: 720 пикселей
Высота: 304 пикселя
Соотношение сторон: 2,35:1
Частота кадров: 23,976 кадра/сек
Цветовое пространство: YUV
Субдискретизация насыщенности: 4:2:0
Битовая глубина: 8 бит
Тип развёртки: Прогрессивная
Метод сжатия: С потерями
Бит/(Пиксели*Кадры): 0.424
Размер потока: 2,15 Гбайт (83%)
Библиотека кодирования: XviD 73

Аудио:
Идентификатор: 1
Формат: AC-3
Формат/Информация: Audio Coding 3
Расширение режима: CM (complete main)
Параметр Endianness формата: Big
Идентификатор кодека: 2000
Продолжительность: 2 ч. 18 м.
Вид битрейта: Постоянный
Битрейт: 448 Кбит/сек
Каналы: 6 каналов
Расположение каналов: Front: L C R, Side: L R, LFE
Частота: 48,0 КГц
Битовая глубина: 16 бит
Метод сжатия: С потерями
Размер потока: 443 Мбайт (17%)
Выравнивание: Соединение по промежуткам
Продолжительность промежутка: 42 мс. (1,00 видеокадр)
Время предзагрузки промежутка: 512 мс.

pb.wtf



Скачать Хозяин морей: На краю Земли через торрент https://pic.kartinco.top/images/8/t2n2h.jpg Скачать фильм Хозяин морей: На краю Земли через торрент бесплантно в хорошем качестве Описание: Действие фильма разворачивается во время наполеоновских войн. Военный парусник Ее Величества «Сюрприз», бороздящий просторы ... 10 10 9
Торрент: Зарегистрирован [2014-11-17 17:20] · скачан: 373 раз
Статус: √ проверено
Размер: 2.59 GB
Как cкачать? Как скачать Хозяин морей: На краю Земли через торрент | UTorrent

% Раздел Тема Автор DL S | L
Фильмы [HD 720p, 1080p] (Хороший звук DUB, MVO) [ 5.86 GB ] Хозяин морей: На краю Земли / Master and Commander: The Far Side of the World [2003 военный история BDRip 1080p HEVC ()] Мичман37 Скачать
1 | 0
Фильмы (HD 720p, 1080p) (48-60 fps) [ 5.19 GB ] Хозяин морей: На краю Земли / Master and Commander: The Far Side of the World [2003 военный BDRip 720p 60 FPS ] Amantaigo Скачать
1 | 0
Фильмы [HD 720p, 1080p] (Хороший звук DUB, MVO) [ 7.76 GB ] Хозяин морей: На краю Земли / Master and Commander: The Far Side of the World [2003 BDRip 720p] D P A potroks Скачать
1 | 0
Фильмы [HD 720p, 1080p] (Хороший звук DUB, MVO) [ 12.02 GB ] Хозяин морей: На краю Земли / Master and Commander: The Far Side of the World [ BDRip ] Flint3 Скачать
1 | 0
Фильмы 2001-2005 [ 1.46 GB ] Хозяин морей: На краю Земли / Master and Commander: The Far Side of the World [2003 Военный HDRip] DUB L_E_X Скачать
1 | 0

28-11-2019 20:33  

Отключить всю рекламу на сайте

18-11-2014 12:21 Хозяин морей: На краю Земли Скачать торрент  

где раздающий? либо удаляйте либо го на раздачу у всех скачано до 83.4%pb.wtf



18-11-2014 13:04 Хозяин морей: На краю Земли Скачать торрент  

multidvd, извиняюсь, были проблемы с интернетомpb.wtf



18-11-2014 17:35 Хозяин морей: На краю Земли Скачать торрент  

Dean24 писал(а):

multidvd, извиняюсь, были проблемы с интернетом

спасибо за раздачуpb.wtf



26-08-2015 16:05 Хозяин морей: На краю Земли Скачать торрент  

встаньте народ на раздачуpb.wtf



    Дорогой пользователь! Огромная просьба, поблагодарите релизера, оцените раздачу и оставьте свои комментарий, если Вы скачали Хозяин морей: На краю Земли через торрент бесплатно! Внесите свою лепту в развитие PiratBit!
    Комментировать посты могут только пользователи прошедшие не сложную регистрацию
    Показать сообщения:    

    Хозяин морей: На краю Земли через торрент
    Скачать бесплатно Хозяин морей: На краю Земли
    Хозяин морей: На краю Земли скачать торрент
    Хозяин морей: На краю Земли смотреть онлайн
    Cкачать фильм Хозяин морей: На краю Земли бесплатно
    Хозяин морей: На краю Земли скачать торрент в хорошем качестве
    Хозяин морей: На краю Земли смотреть онлайн бесплатно в хорошем качестве


    Вы не можете начинать темы
    Вы не можете отвечать на сообщения
    Вы не можете редактировать свои сообщения
    Вы не можете удалять свои сообщения
    Вы не можете голосовать в опросах
    Вы не можете прикреплять файлы к сообщениям
    Вы можете скачивать файлы