Ссылка на приватное зеркало нашего сайта всего за 1$. Внимание количество ограничено!!!

2 сезон

iTunes

1 сезон

1

iTunes

iTunes

iTunes

1 сезон

RePack

30

ИГРА 18+

pack

ВАЖНО

!!Акция!!

Alien_RageХит недели

RePack

MK11
pack

Забери бонус

RePack

jed

!!Акция!!

Alien_Rage

RePack

fifa19

RePack

Assassins Creed: Odyssey

RePack

NEED FOR SPEED™ PAYBACK

4 сезон

9 сезон

Бесстыжие 9 сезон

Все сериалы

все сериалы на PB.wtf

RePack

FAR CRY 5
  

Викинг / мини-сериал / Серии 1-4 из 4 (Станислав Мареев) [2006, Россия, боевик , DVDRip) pb.wtf

Викинг через торрент pb.wtf

Размер: 2.26 GB | Добавлен: 5 лет 11 мес. назад | Торрент скачан:335 раз
Скачать  

18-11-2014 05:45 Викинг Скачать торрент  

Викинг


  • Год выпуска: 2006
  • Страна: Россия
  • Жанр: боевик
  • Продолжительность: 00:45:33 (Серия)
  • Перевод: Не требуется

  • Режиссер: Станислав Мареев
  • В ролях:

    Евгений Сидихин (Шведов), Александр Баширов (Салим), Николай Чиндяйкин (Куницын), Алексей Девотченко (Филин), Андрей Федорцов (прокурор военного гарнизона Осипов), Николай Годовиков (Юшин, комендант гарнизона), Анна Лутцева (Марина, подруга Викинга), Александр Песков (Скобелев), Самвел Мужикян (Зингер), Андрей Сиганов (Кожин), Евгений Ганелин (Семенов, офицер-подводник), Юрий Ицков (Михалыч)

  • Описание:
    Середина 1990-х. Один из гарнизонов Российского флота. Офицер-подводник, капитан третьего ранга Шведов получает задание от спецслужб, которым стало известно о планах террористов похитить с территории военно-морской базы оружие.
    Задание на первый взгляд кажется парадоксальным: усилить бдительность во время несения службы на берегу и действовать строго по уставу, не допуская нарушения дисциплины со стороны подчиненных. В реальности всё оказывается гораздо сложнее, и Шведову приходится вступить в противоборство не только с курьерами террористов, но и с местной организованной преступностью и с пособниками бандитов на территории базы.
    Во время проведения операции случается так, что бандиты убивают руководителя операции, полковника ГРУ Скобелева, и офицеру-подводнику приходится действовать самостоятельно в крайне сложных условиях, чтобы сорвать замыслы террористов и отомстить за гибель своих боевых друзей.
  • Качество: DVDRip
  • Формат: :AVI
  • Видео кодек: XviD
  • Аудио кодек: AC3
  • Видео: 704x400 (16:9), 1565 kbps, 25 fps, 0,222 bpp
  • Аудио: 2.0 / 48 kHz / 192 kbps / 16 bit
  • Релиз от: GEKADOL

    Код:

    Общее
    Полное имя                               : D:\Фильмы\Викинг\04_Викинг.avi
    Формат                                   : AVI
    Формат/Информация                        : Audio Video Interleave
    Размер файла                             : 576 Мбайт
    Продолжительность                        : 45 м.
    Общий поток                              : 1767 Кбит/сек
    Библиотека кодирования                   : VirtualDub build 35390/release

    Видео
    Идентификатор                            : 0
    Формат                                   : MPEG-4 Visual
    Профиль формата                          : Advanced Simple@L5
    Параметр BVOP формата                    : 2
    Параметр QPel формата                    : Нет
    Параметр GMC формата                     : Без точки перехода
    Параметр матрицы формата                 : Выборочная
    Идентификатор кодека                     : XVID
    Идентификатор кодека/Подсказка           : XviD
    Продолжительность                        : 45 м.
    Битрейт                                  : 1566 Кбит/сек
    Ширина                                   : 704 пикселя
    Высота                                   : 400 пикселей
    Соотношение сторон                       : 16:9
    Частота кадров                           : 25,000 кадров/сек
    Цветовое пространство                    : YUV
    Субдискретизация насыщенности            : 4:2:0
    Битовая глубина                          : 8 бит
    Тип развёртки                            : Прогрессивная
    Метод сжатия                             : С потерями
    Бит/(Пиксели*Кадры)                      : 0.222
    Размер потока                            : 510 Мбайт (89%)
    Библиотека кодирования                   : XviD 1.2.1 (UTC 2008-12-04)

    Аудио
    Идентификатор                            : 1
    Формат                                   : AC-3
    Формат/Информация                        : Audio Coding 3
    Расширение режима                        : CM (complete main)
    Параметр Endianness формата              : Big
    Идентификатор кодека                     : 2000
    Продолжительность                        : 45 м.
    Вид битрейта                             : Постоянный
    Битрейт                                  : 192 Кбит/сек
    Каналы                                   : 2 канала
    Расположение каналов                     : Front: L R
    Частота                                  : 48,0 КГц
    Битовая глубина                          : 16 бит
    Метод сжатия                             : С потерями
    Размер потока                            : 62,6 Мбайт (11%)
    Выравнивание                             : Соединение по промежуткам
    Продолжительность промежутка             : 40  мс. (1,00 видеокадр)
    Время предзагрузки промежутка            : 512  мс.


    Скриншоты:



    pb.wtf



  • Скачать Викинг через торрент http://i67.fastpic.ru/big/2014/1118/ad/c405a943535d37d4271fb8378f7904ad.jpg Скачать фильм Викинг через торрент бесплантно в хорошем качестве Описание: Середина 1990-х. Один из гарнизонов Российского флота. Офицер-подводник, капитан третьего ранга Шведов получает задание от ... 9.7 10 15
    Торрент: Зарегистрирован [2014-11-18 05:45] · скачан: 335 раз
    Статус: √ проверено
    Размер: 2.26 GB
    Как cкачать? Как скачать Викинг через торрент | qTorrent

    % Раздел Тема Автор DL S | L
    Наши сериалы [ 2.33 GB ] Викинг / Сезон: 2 / Серии 1-4 из 4 [2014 Россия SATRip) GEKADOL Скачать
    1 | 0

    28-11-2019 20:33  

    Отключить всю рекламу на сайте

    18-11-2014 05:55 Викинг Скачать торрент  

    Тьфу ты ё моё,я то уж подумал 3-ий сезон викингов вышел. А это Российский сериал Спасибо за твои релизы!pb.wtf



    18-11-2014 06:02 Викинг Скачать торрент  

    Викинг 2 На выходных будет.pb.wtf



      Дорогой пользователь! Огромная просьба, поблагодарите релизера, оцените раздачу и оставьте свои комментарий, если Вы скачали Викинг через торрент бесплатно! Внесите свою лепту в развитие PiratBit!
      Комментировать посты могут только пользователи прошедшие не сложную регистрацию
      Показать сообщения:    

      Викинг через торрент
      Скачать бесплатно Викинг
      Викинг скачать торрент
      Викинг смотреть онлайн
      Cкачать фильм Викинг бесплатно
      Викинг скачать торрент в хорошем качестве
      Викинг смотреть онлайн бесплатно в хорошем качестве


      Вы не можете начинать темы
      Вы не можете отвечать на сообщения
      Вы не можете редактировать свои сообщения
      Вы не можете удалять свои сообщения
      Вы не можете голосовать в опросах
      Вы не можете прикреплять файлы к сообщениям
      Вы можете скачивать файлы