Ссылка на приватное зеркало нашего сайта всего за 1$. Внимание количество ограничено!!!

2 сезон

iTunes

1 сезон

1

iTunes

iTunes

iTunes

1 сезон

RePack

30

ИГРА 18+

pack

ВАЖНО

!!Акция!!

Alien_RageХит недели

RePack

MK11
pack

Забери бонус

RePack

jed

!!Акция!!

Alien_Rage

RePack

fifa19

RePack

Assassins Creed: Odyssey

RePack

NEED FOR SPEED™ PAYBACK

4 сезон

9 сезон

Бесстыжие 9 сезон

Все сериалы

все сериалы на PB.wtf

RePack

FAR CRY 5
  

Марьина роща-2 / 1-18 (18) / (Евгений Серов) [2014 г., Криминальный детектив, HDTV 1080i] pb.wtf

Марьина роща-2 через торрент pb.wtf

Размер: 46.68 GB | Добавлен: 5 лет 11 мес. назад | Торрент скачан:110 раз
Скачать  

18-11-2014 06:13 Марьина роща-2 Скачать торрент  

Марьина роща-2
Год выпуска: 2014
Страна: Россия
Жанр: Криминальный детектив
Продолжительность: ~ 00:45:00

Режиссер: Евгений Серов

В ролях: Александр Домогаров, Евгения Крюкова, Виктор Тереля, Сергей Комаров (II), Александр Сергеев (IV), Игорь Поселенов, Александр Печенин, Александр Новик, Юлия Рутберг, Дмитрий Горевой, Надежда Иванова, Кирилл Каганович, Татьяна Ткач, Владимир Долинский, Юрий Шлыков, Алексей Михайлов (II), Борис Романов, Яна Львова, Вера Фалютинская, Ирина Гришина, Екатерина Виноградова (III), Дмитрий Янышевский, Николай Бутенин, Александра Булычёва, Анна Снегина, Анастасия Немец, Олег Чевелёв, Юрий Маслак, Елена Антипова, Вячеслав Беляев, Юрий Тузов, Венчислав Хотяновский, Ксения Баринова, Эмилия Савельева, Елена Гольянова

Описание: Арест Трошина круто меняет не только его судьбу, но и жизни всех главных героев истории. А за свое освобождение Трошин расплачивается самым дорогим – любовью. Их с Ниной отношения подвергаются серьезнейшим испытаниям, главное из которых – Николай, муж Нины, который, оказывается, жив. Но, несмотря на личные проблемы, Трошин вновь на посту. Он, по-прежнему, участковый в Марьиной Роще, обстановка в которой постепенно накаляется. Эйфория мая 45-го проходит, начинаются суровые будни – усиление борьбы с преступностью, ужесточение наказаний. Но уголовный мир не намерен сдаваться. Преступная элита, где Николай играет не последнюю роль, в свою очередь ведет наступление на закон и порядок. В нечестной игре все средства хороши – от устранения сотрудников милиции, до подкупа и шантажа. Принципиальный Трошин для воров в законе становится большой проблемой…

Качество: HDTV 1080i
Формат:MPEG TS
Видео кодек: AVC
Аудио кодек: MPEG Audio
Видео: ~ 8700 Кбит/с, 1920x1080, 25.000 кадр/с
Аудио#1: 2 ch, 256 Кбит/с 48,0 КГц
Внимание! Раздача ведётся путём добавления новых серий; при каждом добавлении создаётся новый торрент. Чтобы начать докачку новой серии, пользователям необходимо сделать следующее:
(1) остановить скачивание,
(2) удалить старый торрент у себя из клиента (старые серии удалять не надо),
(3) скачать новый торрент и запустить его у себя в клиенте вместо старого, при этом указать клиенту путь в старую папку куда и должно происходить скачивание новых серий.
Ваш клиент при этом должен произвести хеширование (проверку) старой папки (если не производит сам - помогите ему сделать это), и будет докачивать только те серии которых у вас ещё нет. Старые серии при этом не удаляются, а продолжают раздаваться!
Eсли вы уже удалили старые серии, то предотвратить повторную закачку старых серий можно, отжав галочку в соответсnвующих местах при запуске нового торрента. По возможности, желательно не удалять старые серии как можно дольше чтобы релизёр не столько продолжал раздавать старые серии, а смог сконцентрироваться на новых.

Общее
Идентификатор : 1 (0x1)
Полное имя : H:\Марьина роща\Marina.Roscha-2.HDTV.(1080i).MediaClub\Marina.Roscha-2.(01.seriya.iz.16).HDTV.(1080i).MediaClub.ts
Формат : MPEG-TS
Размер файла : 2,60 Гбайт
Продолжительность : 43 м.
Режим общего битрейта : Переменный
Общий поток : 8628 Кбит/сек

Видео
Идентификатор : 1000 (0x3E8)
Идентификатор меню : 1 (0x1)
Формат : AVC
Формат/Информация : Advanced Video Codec
Профиль формата : High@L4.0
Параметр CABAC формата : Да
Параметр ReFrames формата : 4 кадра
Идентификатор кодека : 27
Продолжительность : 43 м.
Битрейт : 7943 Кбит/сек
Ширина : 1920 пикселей
Высота : 1080 пикселей
Соотношение сторон : 16:9
Частота кадров : 25,000 кадров/сек
Цветовое пространство : YUV
Субдискретизация насыщенности : 4:2:0
Битовая глубина : 8 бит
Тип развёртки : MBAFF
Порядок развёртки : Верхнее поле первое
Бит/(Пиксели*Кадры) : 0.153
Размер потока : 2,39 Гбайт (92%)

Аудио
Идентификатор : 1101 (0x44D)
Идентификатор меню : 1 (0x1)
Формат : MPEG Audio
Версия формата : Version 1
Профиль формата : Layer 2
Идентификатор кодека : 3
Продолжительность : 43 м.
Вид битрейта : Постоянный
Битрейт : 256 Кбит/сек
Каналы : 2 канала
Частота : 48,0 КГц
Метод сжатия : С потерями
Размер потока : 78,9 Мбайт (3%)


Марьина роща скачать торрент


pb.wtf



Скачать Марьина роща-2 через торрент http://pic.kartinco.top/images/8/oz5hg.jpg Скачать фильм Марьина роща-2 через торрент бесплантно в хорошем качестве Описание: Арест Трошина круто меняет не только его судьбу, но и жизни всех главных героев истории. А за свое освобождение Трошин ... 9.6 10 20
Info! Золотая раздача, скачанное не засчитывается.
Торрент: Зарегистрирован [2014-11-24 06:41] · скачан: 110 раз
Статус: √ проверено
Размер: 46.68 GB
Как cкачать? Как скачать Марьина роща-2 через торрент | qTorrent

% Раздел Тема Автор DL S | L
Наши сериалы [ 10.21 GB ] Марьина роща / Сезон: 2 / Серии: 1-18 из 18 [2014 Россия ьный HDTVRip] Assasinca Скачать
1 | 0


Последний раз редактировалось: Assasinca (2014-11-24 07:46), всего редактировалось 3 раз(а)

28-11-2019 20:33  

Отключить всю рекламу на сайте

24-11-2014 07:25 Марьина роща-2 Скачать торрент  

Отредактировала. Спс за понимание. Можно качать.pb.wtf



    Дорогой пользователь! Огромная просьба, поблагодарите релизера, оцените раздачу и оставьте свои комментарий, если Вы скачали Марьина роща-2 через торрент бесплатно! Внесите свою лепту в развитие PiratBit!
    Комментировать посты могут только пользователи прошедшие не сложную регистрацию
    Показать сообщения:    

    Марьина роща-2 через торрент
    Скачать бесплатно Марьина роща-2
    Марьина роща-2 скачать торрент
    Марьина роща-2 смотреть онлайн
    Cкачать фильм Марьина роща-2 бесплатно
    Марьина роща-2 скачать торрент в хорошем качестве
    Марьина роща-2 смотреть онлайн бесплатно в хорошем качестве


    Вы не можете начинать темы
    Вы не можете отвечать на сообщения
    Вы не можете редактировать свои сообщения
    Вы не можете удалять свои сообщения
    Вы не можете голосовать в опросах
    Вы не можете прикреплять файлы к сообщениям
    Вы можете скачивать файлы