Ссылка на приватное зеркало нашего сайта всего за 1$. Внимание количество ограничено!!!

2 сезон

iTunes

1 сезон

1

iTunes

iTunes

iTunes

1 сезон

RePack

30

ИГРА 18+

pack

ВАЖНО

!!Акция!!

Alien_RageХит недели

RePack

MK11
pack

Забери бонус

RePack

jed

!!Акция!!

Alien_Rage

RePack

fifa19

RePack

Assassins Creed: Odyssey

RePack

NEED FOR SPEED™ PAYBACK

4 сезон

9 сезон

Бесстыжие 9 сезон

Все сериалы

все сериалы на PB.wtf

RePack

FAR CRY 5
  

Её сердце / A Mighty Heart (Майкл Уинтерботтом) [2007, триллер, драма, военный, биография, история, BDRip 1080p] DVO pb.wtf

Её сердце через торрент pb.wtf

Размер: 10.32 GB | Добавлен: 5 лет 11 мес. назад | Торрент скачан:9 раз
Скачать  

18-11-2014 06:35 Её сердце Скачать торрент  

Её сердце / A Mighty Heart

Год выпуска: 2007
Страна: США, Великобритания
Жанр: триллер, драма, военный, биография, история
Продолжительность: 01:47:52
Перевод: профессиональный двухголосый
Субтитры: английские

Режиссёр: Майкл Уинтерботтом

В ролях: Анджелина Джоли, Дэн Футтерман, Арчи Панджаби, Мохаммед Афзал, Муштак Кан, Дауд Кан, Тэфаль Саид, Ариф Кан, Типу Тахир, Амит Дхаван, Саира Кан, Алийя Кан, Сара Моун, Бушра Парвани

Описание: 23 января 2002 года жизнь журналистки Марианы Перл резко изменилась. Ее муж Дэниел Перл, руководитель южно-азиатского бюро нью-йоркского издания Wall Street Journal, занимавшийся в столице Пакистана Карачи поиском материала для статьи о террористе Ричарде Риде, бесследно исчез. Находившаяся на шестом месяце беременности, Мариана отчаянно пыталась его разыскать. Однако вскоре выяснилось, что он был захвачен боевиками, объявлен израильским шпионом и обезглавлен. Видеозапись казни бандиты передали в СМИ…



Качество: BDRip 1080p Сравнение с исходником
Формат: MKV
Видео кодек: H.264
Аудио кодек: AC3
Видео: 12.3 Mbps,1920x822, 23.976 кадра/с, 0.326 bpp
Аудио 1: русский, AC3, 448 kbps, 6 ch, 48 kHz [профессиональный двухголосый, Interfilm]
Аудио 2: английский, AC3, 640 kbps, 6 ch, 48 kHz [оригинал]

Имеются неименованные главы/чаптеры.

Автор рипа msltel
Золотой глобус, 2008 год
Номинации (1):
Лучшая женская роль (драма) (Анджелина Джоли)

Премия Гильдии актеров, 2008 год
Номинации (1):
Лучшая женская роль (Анджелина Джоли)
frame I:1127 Avg QP:18.73 size:155055
frame P:28795 Avg QP:19.41 size:103766
frame B:125258 Avg QP:21.49 size: 56182

Общее
Уникальный идентификатор : 228585092419825691377651589095388924805 (0xABF7E32ED241DBC68B4486427750CB85)
Полное имя : D:VideoEe serdce.2007.BDRip.1080p.mkv
Формат : Matroska
Версия формата : Version 4 / Version 2
Размер файла : 10,3 Гбайт
Продолжительность : 1 ч. 47 м.
Общий поток : 13,7 Мбит/сек
Дата кодирования : UTC 2014-11-18 03:01:37
Программа кодирования : mkvmerge v7.3.0 ('Nouages') 64bit built on Oct 22 2014 18:53:34
Библиотека кодирования : libebml v1.3.0 + libmatroska v1.4.1
_STATISTICS_WRITING_APP : mkvmerge v7.3.0 ('Nouages') 64bit built on Oct 22 2014 18:53:34
_STATISTICS_WRITING_DATE_UTC : 2014-11-18 03:01:37
_STATISTICS_TAGS : BPS DURATION NUMBER_OF_FRAMES NUMBER_OF_BYTES
DURATION : 01:42:06.078000000
NUMBER_OF_FRAMES : 1315
NUMBER_OF_BYTES : 49676

Видео
Идентификатор : 1
Формат : AVC
Формат/Информация : Advanced Video Codec
Профиль формата : High@L4.1
Параметр CABAC формата : Да
Параметр ReFrames формата : 4 кадра
Идентификатор кодека : V_MPEG4/ISO/AVC
Продолжительность : 1 ч. 47 м.
Битрейт : 12,3 Мбит/сек
Ширина : 1920 пикселей
Высота : 822 пикселя
Соотношение сторон : 2,35:1
Режим частоты кадров : Постоянный
Частота кадров : 23,976 кадра/сек
Цветовое пространство : YUV
Субдискретизация насыщенности : 4:2:0
Битовая глубина : 8 бит
Тип развёртки : Прогрессивная
Бит/(Пиксели*Кадры) : 0.326
Размер потока : 9,30 Гбайт (90%)
Заголовок : BDRip -- STarankov
Библиотека кодирования : x264 core 142 r2431 ac76440
Настройки программы : cabac=1 / ref=4 / deblock=1:-1:-1 / analyse=0x3:0x113 / me=umh / subme=10 / psy=1 / psy_rd=1.00:0.15 / mixed_ref=1 / me_range=32 / chroma_me=1 / trellis=2 / 8x8dct=1 / cqm=0 / deadzone=21,11 / fast_pskip=1 / chroma_qp_offset=-3 / threads=6 / lookahead_threads=1 / sliced_threads=0 / nr=0 / decimate=1 / interlaced=0 / bluray_compat=0 / constrained_intra=0 / bframes=8 / b_pyramid=2 / b_adapt=2 / b_bias=0 / direct=3 / weightb=1 / open_gop=0 / weightp=2 / keyint=230 / keyint_min=23 / scenecut=40 / intra_refresh=0 / rc_lookahead=40 / rc=crf / mbtree=0 / crf=20.2 / qcomp=0.60 / qpmin=0 / qpmax=69 / qpstep=4 / vbv_maxrate=50000 / vbv_bufsize=62500 / crf_max=0.0 / nal_hrd=none / filler=0 / ip_ratio=1.40 / pb_ratio=1.30 / aq=1:1.00
Язык : English
Default : Да
Forced : Нет
DURATION : 01:47:52.299000000
NUMBER_OF_FRAMES : 155180
NUMBER_OF_BYTES : 10199899679
_STATISTICS_WRITING_APP : mkvmerge v7.3.0 ('Nouages') 64bit built on Oct 22 2014 18:53:34
_STATISTICS_WRITING_DATE_UTC : 2014-11-18 03:01:37
_STATISTICS_TAGS : BPS DURATION NUMBER_OF_FRAMES NUMBER_OF_BYTES

Аудио #1
Идентификатор : 2
Формат : AC-3
Формат/Информация : Audio Coding 3
Расширение режима : CM (complete main)
Параметр Endianness формата : Big
Идентификатор кодека : A_AC3
Продолжительность : 1 ч. 47 м.
Вид битрейта : Постоянный
Битрейт : 448 Кбит/сек
Каналы : 6 каналов
Расположение каналов : Front: L C R, Side: L R, LFE
Частота : 48,0 КГц
Битовая глубина : 16 бит
Метод сжатия : С потерями
Размер потока : 346 Мбайт (3%)
Заголовок : DVO (Interfilm)
Язык : Russian
Default : Да
Forced : Нет

Аудио #2
Идентификатор : 3
Формат : AC-3
Формат/Информация : Audio Coding 3
Расширение режима : CM (complete main)
Параметр Endianness формата : Big
Идентификатор кодека : A_AC3
Продолжительность : 1 ч. 47 м.
Вид битрейта : Постоянный
Битрейт : 640 Кбит/сек
Каналы : 6 каналов
Расположение каналов : Front: L C R, Side: L R, LFE
Частота : 48,0 КГц
Битовая глубина : 16 бит
Метод сжатия : С потерями
Размер потока : 494 Мбайт (5%)
Заголовок : Original
Язык : English
Default : Нет
Forced : Нет

Текст
Идентификатор : 4
Формат : UTF-8
Идентификатор кодека : S_TEXT/UTF8
Идентификатор кодека/Информация : UTF-8 Plain Text
Заголовок : английский
Язык : English
Default : Нет
Forced : Нет

Меню
00:00:00.000 : :Chapter 01
00:03:17.447 : :Chapter 02
00:11:26.894 : :Chapter 03
00:19:10.732 : :Chapter 04
00:29:01.781 : :Chapter 05
00:38:11.038 : :Chapter 06
00:49:53.740 : :Chapter 07
00:58:00.477 : :Chapter 08
01:06:44.125 : :Chapter 09
01:16:09.439 : :Chapter 10
01:26:29.434 : :Chapter 11
01:34:41.634 : :Chapter 12
01:41:39.885 : :Chapter 13
pb.wtf



Скачать Её сердце через торрент http://i65.fastpic.ru/big/2014/1117/40/e3be13bbbee317984ff42af570bbd940.jpg Скачать фильм Её сердце через торрент бесплантно в хорошем качестве Описание: 23 января 2002 года жизнь журналистки Марианы Перл резко изменилась. Ее муж Дэниел Перл, руководитель южно-азиатского бюро ... 10 10 1
Торрент: Зарегистрирован [2014-11-18 06:35] · скачан: 9 раз
Статус: √ проверено
Размер: 10.32 GB
Как cкачать? Как скачать Её сердце через торрент | qTorrent

% Раздел Тема Автор DL S | L
Фильмы [HD 720p, 1080p] (Хороший звук DUB, MVO) [ 4.77 GB ] Её сердце / A Mighty Heart [2007 военный биография история BDRip 720p] DVO msltel Скачать
1 | 0

28-11-2019 20:33  

Отключить всю рекламу на сайте

    Дорогой пользователь! Огромная просьба, поблагодарите релизера, оцените раздачу и оставьте свои комментарий, если Вы скачали Её сердце через торрент бесплатно! Внесите свою лепту в развитие PiratBit!
    Комментировать посты могут только пользователи прошедшие не сложную регистрацию
    Показать сообщения:    

    Её сердце через торрент
    Скачать бесплатно Её сердце
    Её сердце скачать торрент
    Её сердце смотреть онлайн
    Cкачать фильм Её сердце бесплатно
    Её сердце скачать торрент в хорошем качестве
    Её сердце смотреть онлайн бесплатно в хорошем качестве


    Вы не можете начинать темы
    Вы не можете отвечать на сообщения
    Вы не можете редактировать свои сообщения
    Вы не можете удалять свои сообщения
    Вы не можете голосовать в опросах
    Вы не можете прикреплять файлы к сообщениям
    Вы можете скачивать файлы