Всегда рабочее зеркало без VPN и Proxy просто перед .vidak.icu напиши любое слово или цифру, Пример http://isfl.vidak.icu

MVO

2 сезон

2 сезон

1

1 сезон

iTunes

2 сезон

13

1 сезон

Распродажа

pack

Рекомендуем

Пиратка

30

ВАЖНО

RePack

MK11

RePack

jed

RePack

fifa19

RePack

RDR2

RePack

NEED FOR SPEED™ PAYBACK

Кинопоиск HD

6 сезон

 Острые козырьки 6 сезон

Все сериалы

все сериалы на PB.wtf

RePack

FAR CRY 5

Anonymous, нам критически не хватает 5601 руб. на оплату серверов и переферии за Апрель, помоги нам пожалуйста, вся надежда только на тебя. В благодарность мы отключим тебе всю рекламу на сайте!

×
  
Magnet ссылка

Ровер / The Rover (Дэвид Мишо) [2014, драма, криминал, BDRip 720p, Любительский двухголосый [Студия "Paradox"]+AVO+VO pb.wtf

Ровер через торрент pb.wtf

Размер: 5.97 GB | Добавлен: 7 лет 6 мес. назад | Торрент скачан:68 раз
Смотреть онлайн Ровер | Скачать    Ребята, помогите собрать деньги на оплату серверов!!!

04-09-2014 17:30 Ровер Скачать торрент  


Ровер / The Rover

«Бойся человека, которому нечего терять»

Год выпуска:2014
Страна:Австралия, США
Жанр:драма, криминал
Продолжительность: 01:42:53
Перевод:Любительский двухголосый [Студия "Paradox"]
Субтитры: русские, английские,
Режиссер:Дэвид Мишо
В ролях:

Гай Пирс (Eric), Чан Кьень (Karaoke 1), Роберт Паттинсон (Rey), Тек Конг Лим (Karaoke 2), Скут МакНэйри (Henry), Таванда Маниймо (Caleb), Дэвид Филд (Archie), Скотт Перри (Dying Soldier), Ричард Грин (Storekeeper), Бен Армер (Benny), Этан Хэнслоу (Hanging Gardens Boy), Джиллиан Джонс (Grandma)
  • Описание:
    Главный герой преследует по дикой австралийской природе банду, угнавшую его автомобиль, и оказывается в ловушке.


    Качество:BDRip 720p
    Формат:MKV
    Видео кодек: AVC
    Аудио кодек:AC3, DTS, MP3
    Видео: AVC, 1280x534 (2.40:1), 5665 kbps, 23,976 fps, 0,346 bpp
    Аудио №1: русский / AC3 / 5.1 / 48 kHz / 448 kbps / 16 bit || Авторский (Матвеев - Doctor Joker)
    Аудио №2: русский / AC3 / 5.1 / 48 kHz / 384 kbps / 16 bit || Профессиональный двухголосый [Студия "Paradox"]
    Аудио №3: русский / MP3 / 2.0 / 48 kHz / 128 kbps / || любительский одноголосый (R.A.I.M)
    Аудио №4: английский / DTS / 5.1 / 48 kHz / 1510 kbps / 24 bit
    Навигация по главам: есть

    Код:

    General
    Unique ID                                : 179615781584203940807395250354290498697 (0x8720BDC0D704A4B28F230537AF911C89)
    Complete name                            : D:\Торенты\The.Rover.2014.BDRip.720p.mkv
    Format                                   : Matroska
    Format version                           : Version 2
    File size                                : 5.97 GiB
    Duration                                 : 1h 42mn
    Overall bit rate                         : 8 300 Kbps
    Encoded date                             : UTC 2014-09-04 13:13:48
    Writing application                      : mkvmerge v7.1.0 ('Good Love') 64bit built on Jul 27 2014 13:06:55
    Writing library                          : libebml v1.3.0 + libmatroska v1.4.1
    DURATION                                 : 01:27:14.729000000
    NUMBER_OF_FRAMES                         : 513
    NUMBER_OF_BYTES                          : 16373
    _STATISTICS_WRITING_APP                  : mkvmerge v7.1.0 ('Good Love') 64bit built on Jul 27 2014 13:06:55
    _STATISTICS_WRITING_DATE_UTC             : 2014-09-04 13:13:48
    _STATISTICS_TAGS                         : BPS DURATION NUMBER_OF_FRAMES NUMBER_OF_BYTES

    Video
    ID                                       : 1
    Format                                   : AVC
    Format/Info                              : Advanced Video Codec
    Format profile                           : High@L4.1
    Format settings, CABAC                   : Yes
    Format settings, ReFrames                : 12 frames
    Codec ID                                 : V_MPEG4/ISO/AVC
    Duration                                 : 1h 42mn
    Bit rate                                 : 5 666 Kbps
    Width                                    : 1 280 pixels
    Height                                   : 534 pixels
    Display aspect ratio                     : 2.40:1
    Frame rate                               : 23.976 fps
    Color space                              : YUV
    Chroma subsampling                       : 4:2:0
    Bit depth                                : 8 bits
    Scan type                                : Progressive
    Bits/(Pixel*Frame)                       : 0.346
    Stream size                              : 4.07 GiB (68%)
    Title                                    : The.Rover.2014.720p.BluRay.DTS.x264-HDAccess
    Writing library                          : x264 core 142 r2453kMod ea0ca51
    Encoding settings                        : cabac=1 / ref=12 / deblock=1:-3:-3 / analyse=0x3:0x133 / me=umh / subme=10 / psy=1 / fade_compensate=0.00 / psy_rd=1.05:0.00 / mixed_ref=1 / me_range=24 / chroma_me=1 / trellis=2 / 8x8dct=1 / cqm=0 / deadzone=21,11 / fast_pskip=1 / chroma_qp_offset=-2 / threads=12 / lookahead_threads=2 / sliced_threads=0 / nr=0 / decimate=1 / interlaced=0 / bluray_compat=0 / constrained_intra=0 / fgo=0 / bframes=9 / b_pyramid=2 / b_adapt=2 / b_bias=0 / direct=3 / weightb=1 / open_gop=0 / weightp=2 / keyint=230 / keyint_min=23 / scenecut=40 / intra_refresh=0 / rc_lookahead=40 / rc=crf / mbtree=0 / crf=16.2000 / qcomp=0.70 / qpmin=0 / qpmax=69 / qpstep=4 / vbv_maxrate=50000 / vbv_bufsize=62500 / crf_max=0.0 / nal_hrd=none / filler=0 / ip_ratio=1.30 / pb_ratio=1.20 / aq=2:0.90
    Language                                 : English
    Default                                  : Yes
    Forced                                   : No
    DURATION                                 : 01:42:52.959000000
    NUMBER_OF_FRAMES                         : 148003
    NUMBER_OF_BYTES                          : 4497273080
    _STATISTICS_WRITING_APP                  : mkvmerge v7.1.0 ('Good Love') 64bit built on Jul 27 2014 13:06:55
    _STATISTICS_WRITING_DATE_UTC             : 2014-09-04 13:13:48
    _STATISTICS_TAGS                         : BPS DURATION NUMBER_OF_FRAMES NUMBER_OF_BYTES
    Matrix coefficients                      : BT.709-5, BT.1361, IEC 61966-2-4 709, SMPTE RP177

    Audio #1
    ID                                       : 2
    Format                                   : AC-3
    Format/Info                              : Audio Coding 3
    Mode extension                           : CM (complete main)
    Codec ID                                 : A_AC3
    Duration                                 : 1h 42mn
    Bit rate mode                            : Constant
    Bit rate                                 : 448 Kbps
    Channel(s)                               : 6 channels
    Channel positions                        : Front: L C R, Side: L R, LFE
    Sampling rate                            : 48.0 KHz
    Bit depth                                : 16 bits
    Compression mode                         : Lossy
    Stream size                              : 330 MiB (5%)
    Title                                    : AVO [Matveev - Doctor Joker] - AC3 5.1 448 kbps
    Language                                 : Russian
    Default                                  : Yes
    Forced                                   : No

    Audio #2
    ID                                       : 3
    Format                                   : AC-3
    Format/Info                              : Audio Coding 3
    Mode extension                           : CM (complete main)
    Codec ID                                 : A_AC3
    Duration                                 : 1h 42mn
    Bit rate mode                            : Constant
    Bit rate                                 : 384 Kbps
    Channel(s)                               : 6 channels
    Channel positions                        : Front: L C R, Side: L R, LFE
    Sampling rate                            : 48.0 KHz
    Bit depth                                : 16 bits
    Compression mode                         : Lossy
    Stream size                              : 283 MiB (5%)
    Title                                    : DVO [Paradox] - AC3 5.1 384 kbps
    Language                                 : Russian
    Default                                  : No
    Forced                                   : No

    Audio #3
    ID                                       : 4
    Format                                   : MPEG Audio
    Format version                           : Version 1
    Format profile                           : Layer 3
    Mode                                     : Joint stereo
    Mode extension                           : MS Stereo
    Codec ID                                 : A_MPEG/L3
    Codec ID/Hint                            : MP3
    Duration                                 : 1h 42mn
    Bit rate mode                            : Constant
    Bit rate                                 : 128 Kbps
    Channel(s)                               : 2 channels
    Sampling rate                            : 48.0 KHz
    Compression mode                         : Lossy
    Stream size                              : 94.2 MiB (2%)
    Title                                    : VO [R.A.I.M] - MP3 2.0 128 kbps
    Writing library                          : LAME3.97
    Encoding settings                        : -m j -V 4 -q 3 -lowpass 17 -b 128-m j -V 4 -q 3 -lowpass 17 -b 128-m j -V 4 -q 3 -lowpass 17 -b 128
    Language                                 : Russian
    Default                                  : No
    Forced                                   : No

    Audio #4
    ID                                       : 5
    Format                                   : DTS
    Format/Info                              : Digital Theater Systems
    Codec ID                                 : A_DTS
    Duration                                 : 1h 42mn
    Bit rate mode                            : Constant
    Bit rate                                 : 1 510 Kbps
    Channel(s)                               : 6 channels
    Channel positions                        : Front: L C R, Side: L R, LFE
    Sampling rate                            : 48.0 KHz
    Bit depth                                : 24 bits
    Compression mode                         : Lossy
    Stream size                              : 1.08 GiB (18%)
    Title                                    : Original - DTS 5.1 1509 kbps
    Language                                 : English
    Default                                  : No
    Forced                                   : No

    Text #1
    ID                                       : 6
    Format                                   : UTF-8
    Codec ID                                 : S_TEXT/UTF8
    Codec ID/Info                            : UTF-8 Plain Text
    Language                                 : Russian
    Default                                  : No
    Forced                                   : No

    Text #2
    ID                                       : 7
    Format                                   : UTF-8
    Codec ID                                 : S_TEXT/UTF8
    Codec ID/Info                            : UTF-8 Plain Text
    Language                                 : English
    Default                                  : No
    Forced                                   : No

    Menu
    00:00:00.000                             : en:00:00:00.000
    00:05:54.145                             : en:00:05:54.145
    00:12:57.610                             : en:00:12:57.610
    00:17:51.404                             : en:00:17:51.404
    00:25:28.360                             : en:00:25:28.360
    00:30:34.666                             : en:00:30:34.666
    00:36:52.293                             : en:00:36:52.293
    00:42:18.703                             : en:00:42:18.703
    00:47:47.531                             : en:00:47:47.531
    00:53:05.349                             : en:00:53:05.349
    01:00:39.344                             : en:01:00:39.344
    01:08:57.759                             : en:01:08:57.759
    01:17:00.991                             : en:01:17:00.991
    01:20:07.511                             : en:01:20:07.511
    01:24:39.241                             : en:01:24:39.241
    01:33:18.134                             : en:01:33:18.134


    Скриншоты:


    © Оформление by Raven
    Поблагодарить релизера!
    pb.wtf



  • Скачать Ровер через торрент https://pic1.kartinco.top/images/61/ordi9.jpg Скачать, смотреть онлайн Ровер бесплантно в хорошем качестве Описание:Главный герой преследует по дикой австралийской природе банду, угнавшую его автомобиль, и оказывается в ... 9.2 10 12
    Торрент: Зарегистрирован [2014-10-30 17:24] · скачан: 68 раз
    Статус: √ проверено
    Размер: 5.97 GB
    Как cкачать? Как скачать Ровер через торрент | UTorrent

    % Раздел Тема Автор DL S | L
    Арт-хаус и авторское кино [ 11.28 GB ] Ровер / The Rover [2014 BDRip 1080p DVO [Студия "Paradox"]+AVO [Doctor Joker] Ворон Скачать
    1 | 0


    Последний раз редактировалось: Ворон (2015-01-15 19:01), всего редактировалось 1 раз

    28-11-2019 20:33  

    Отключить всю рекламу на сайте

    15-09-2014 14:41 Ровер Скачать торрент  

    сэмпл бесполезен. хотел послушать перевод, но автор решил что сэмпл должен быть без словpb.wtf



    16-09-2014 18:03 Ровер Скачать торрент  

    На любителя, серый нудный фильм с вялым сюжетом.pb.wtf



    19-09-2014 18:09 Ровер Скачать торрент  

    фильм полное говно, как такое снимать то руки поднимаются?pb.wtf



    26-11-2014 13:04 Ровер Скачать торрент  

    Отличный фильм "ни о чем". После просмотра есть вероятность "зависнуть" и уставится в пустой экран как баран на новые ворота. И в голове проходит только одна мысль- А ЗАЧЕМ ЭТО ВСЕ ВООБЩЕ БЫЛО????pb.wtf



      Дорогой пользователь! Огромная просьба, поблагодарите релизера, оцените раздачу и оставьте свои комментарий, если Вы скачали Ровер через торрент бесплатно!
      Комментировать посты могут только пользователи прошедшие не сложную регистрацию
      Показать сообщения:    

      Ровер через торрент
      Скачать бесплатно Ровер
      Ровер скачать торрент
      Ровер смотреть онлайн
      Cкачать фильм Ровер бесплатно
      Ровер скачать торрент в хорошем качестве
      Ровер смотреть онлайн бесплатно в хорошем качестве


      Вы не можете начинать темы
      Вы не можете отвечать на сообщения
      Вы не можете редактировать свои сообщения
      Вы не можете удалять свои сообщения
      Вы не можете голосовать в опросах
      Вы не можете прикреплять файлы к сообщениям
      Вы можете скачивать файлы