Всегда рабочее зеркало без VPN и Proxy просто перед .vidak.icu напиши любое слово или цифру, Пример http://kme1.vidak.icu

MVO

2 сезон

2 сезон

1

1 сезон

iTunes

2 сезон

13

1 сезон

Deluxe

pack

Рекомендуем

Пиратка

30

ВАЖНО

RePack

MK11

RePack

jed

RePack

fifa19

RePack

RDR2

RePack

NEED FOR SPEED™ PAYBACK

Кинопоиск HD

6 сезон

 Острые козырьки 6 сезон

Все сериалы

все сериалы на PB.wtf

RePack

FAR CRY 5

Anonymous, нам критически не хватает 5601 руб. на оплату серверов и переферии за Апрель, помоги нам пожалуйста, вся надежда только на тебя. В благодарность мы отключим тебе всю рекламу на сайте!

×
  
Magnet ссылка

Ровер / The Rover (Дэвид Мишо) [2014, драма, криминал, HDRip, Любительский двухголосый [Студия "Paradox"] pb.wtf

Ровер через торрент pb.wtf

Размер: 1.45 GB | Добавлен: 7 лет 8 мес. назад | Торрент скачан:1043 раза
Смотреть онлайн Ровер | Скачать    Ребята, помогите собрать деньги на оплату серверов!!!

04-09-2014 17:08 Ровер Скачать торрент  


Ровер / The Rover

«Бойся человека, которому нечего терять»

Год выпуска:2014
Страна:Австралия, США
Жанр:драма, криминал
Продолжительность: 01:42:52
Перевод:Любительский двухголосый [Студия "Paradox"]
Режиссер:Дэвид Мишо
В ролях:

Гай Пирс (Eric), Чан Кьень (Karaoke 1), Роберт Паттинсон (Rey), Тек Конг Лим (Karaoke 2), Скут МакНэйри (Henry), Таванда Маниймо (Caleb), Дэвид Филд (Archie), Скотт Перри (Dying Soldier), Ричард Грин (Storekeeper), Бен Армер (Benny), Этан Хэнслоу (Hanging Gardens Boy), Джиллиан Джонс (Grandma)
  • Описание:
    Главный герой преследует по дикой австралийской природе банду, угнавшую его автомобиль, и оказывается в ловушке.


    Качество:HDRip
    Формат:AVI
    Видео кодек: XviD
    Аудио кодек:AC3
    Видео: XviD, 720x304 (2.35:1), 1625 kbps, 23,976 fps, 0,310 bpp
    Аудио: AC3 / 5.1 / 48 kHz / 384 kbps / 16 bit

    Код:

    General
    Complete name                            : D:\Торенты\The.R0ver.2014.HDRip.1400M.avi
    Format                                   : AVI
    Format/Info                              : Audio Video Interleave
    File size                                : 1.45 GiB
    Duration                                 : 1h 42mn
    Overall bit rate                         : 2 019 Kbps
    Writing application                      : VirtualDubMod 1.5.10.2 (build 2540/release)
    Writing library                          : VirtualDubMod build 2540/release

    Video
    ID                                       : 0
    Format                                   : MPEG-4 Visual
    Format profile                           : Advanced Simple@L5
    Format settings, BVOP                    : 2
    Format settings, QPel                    : No
    Format settings, GMC                     : No warppoints
    Format settings, Matrix                  : Default (MPEG)
    Codec ID                                 : XVID
    Codec ID/Hint                            : XviD
    Duration                                 : 1h 42mn
    Bit rate                                 : 1 626 Kbps
    Width                                    : 720 pixels
    Height                                   : 304 pixels
    Display aspect ratio                     : 2.35:1
    Frame rate                               : 23.976 fps
    Color space                              : YUV
    Chroma subsampling                       : 4:2:0
    Bit depth                                : 8 bits
    Scan type                                : Progressive
    Compression mode                         : Lossy
    Bits/(Pixel*Frame)                       : 0.310
    Stream size                              : 1.17 GiB (81%)
    Writing library                          : XviD 1.2.1 (UTC 2008-12-04)

    Audio
    ID                                       : 1
    Format                                   : AC-3
    Format/Info                              : Audio Coding 3
    Mode extension                           : CM (complete main)
    Codec ID                                 : 2000
    Duration                                 : 1h 42mn
    Bit rate mode                            : Constant
    Bit rate                                 : 384 Kbps
    Channel(s)                               : 6 channels
    Channel positions                        : Front: L C R, Side: L R, LFE
    Sampling rate                            : 48.0 KHz
    Bit depth                                : 16 bits
    Compression mode                         : Lossy
    Stream size                              : 283 MiB (19%)
    Alignment                                : Split accross interleaves
    Interleave, duration                     : 42 ms (1.00 video frame)
    Interleave, preload duration             : 500 ms


    Скриншоты:

    Срочно! Нужна помощь!

    © Оформление by Raven
    Поблагодарить релизера!
    pb.wtf



  • Скачать Ровер через торрент https://pic1.kartinco.top/images/61/ordi9.jpg Скачать, смотреть онлайн Ровер бесплантно в хорошем качестве Описание:Главный герой преследует по дикой австралийской природе банду, угнавшую его автомобиль, и оказывается в ... 9.7 10 37
    Торрент: Зарегистрирован [2014-09-04 17:08] · скачан: 1 043 раз
    Статус: √ проверено
    Размер: 1.45 GB
    Как cкачать? Как скачать Ровер через торрент | UTorrent

    % Раздел Тема Автор DL S | L
    Арт-хаус и авторское кино [ 11.28 GB ] Ровер / The Rover [2014 BDRip 1080p DVO [Студия "Paradox"]+AVO [Doctor Joker] Ворон Скачать
    1 | 0
    Фильмы (DVD фильмы) [ 3.84 GB ] Ровер / The Rover [2014 DVD5] R5 voovaz Скачать
    1 | 0
    Фильмы [HD 720p, 1080p] (Хороший звук DUB, MVO) [ 5.97 GB ] Ровер / The Rover [2014 BDRip 720p Любительский двухголосый [Студия "Paradox"]+AVO+VO Ворон Скачать
    1 | 0
    Фильмы [HD 720p, 1080p] (Хороший звук DUB, MVO) [ 11 GB ] Ровер / The Rover [2014 BDRip 1080p MVO ] Seedtank Скачать
    1 | 0
    Фильмы 2014 [DVDrip, WEB-DLRip, HDrip] [ 2.04 GB ] Ровер / The Rover [2014 HDRip многоголосый] Official sound кэп Скачать
    1 | 0
    Фильмы 2014 [DVDrip, WEB-DLRip, HDrip] [ 1.37 GB ] Ровер / The Rover [2014 HDRip многоголосый] Official sound кэп Скачать
    1 | 0
    Фильмы [HD 720p, 1080p] (Хороший звук DUB, MVO) [ 4.63 GB ] Ровер / The Rover [2014 BDRip 720p многоголосый] кэп Скачать
    1 | 0


    Последний раз редактировалось: Ворон (2015-01-15 19:04), всего редактировалось 2 раз(а)

    28-11-2019 20:33  

    Отключить всю рекламу на сайте

    18-09-2014 14:36 Ровер Скачать торрент  

    Нудятинаpb.wtf



    19-09-2014 12:49 Ровер Скачать торрент  

    Фильм просто х.........х..........х!!!pb.wtf



    16-12-2014 20:37 Ровер Скачать торрент  

    Спасибо посмотрю.pb.wtf



    17-12-2014 21:06 Ровер Скачать торрент  

    Это чистой воды артхаус. Вот, если не прочитать описание фильма, которое кстати уместилось в одном предложении, то смысл/суть фильма не понять. Не понятны причины его поступков, блин даже не понятно в какой стране происходит действие. Это Кин Дза Дза по американский.pb.wtf



      Дорогой пользователь! Огромная просьба, поблагодарите релизера, оцените раздачу и оставьте свои комментарий, если Вы скачали Ровер через торрент бесплатно!
      Комментировать посты могут только пользователи прошедшие не сложную регистрацию
      Показать сообщения:    

      Ровер через торрент
      Скачать бесплатно Ровер
      Ровер скачать торрент
      Ровер смотреть онлайн
      Cкачать фильм Ровер бесплатно
      Ровер скачать торрент в хорошем качестве
      Ровер смотреть онлайн бесплатно в хорошем качестве


      Вы не можете начинать темы
      Вы не можете отвечать на сообщения
      Вы не можете редактировать свои сообщения
      Вы не можете удалять свои сообщения
      Вы не можете голосовать в опросах
      Вы не можете прикреплять файлы к сообщениям
      Вы можете скачивать файлы