Всегда рабочее зеркало без VPN и Proxy просто перед .vidak.icu напиши любое слово или цифру, Пример http://cvuf.vidak.icu

MVO

2 сезон

2 сезон

1

1 сезон

iTunes

2 сезон

13

1 сезон

Распродажа

pack

Рекомендуем

Пиратка

30

ВАЖНО

RePack

MK11

RePack

jed

RePack

fifa19

RePack

RDR2

RePack

NEED FOR SPEED™ PAYBACK

Кинопоиск HD

6 сезон

 Острые козырьки 6 сезон

Все сериалы

все сериалы на PB.wtf

RePack

FAR CRY 5

Anonymous, нам критически не хватает 5601 руб. на оплату серверов и переферии за Апрель, помоги нам пожалуйста, вся надежда только на тебя. В благодарность мы отключим тебе всю рекламу на сайте!

×
  
Magnet ссылка

Ровер / The Rover (Дэвид Мишо) [2014 г., драма, криминал, HDRip, Профессиональный многоголосый] Official sound pb.wtf

Ровер через торрент pb.wtf

Размер: 2.04 GB | Добавлен: 7 лет 7 мес. назад | Торрент скачан:480 раз
Смотреть онлайн Ровер | Скачать    Ребята, помогите собрать деньги на оплату серверов!!!

10-10-2014 14:02 Ровер Скачать торрент  

Ровер / The Rover

Год выпуска: 2014
Страна: Австралия, США
Жанр: драма, криминал
Продолжительность: 01:42:52
Перевод: Профессиональный многоголосый

Режиссер: Дэвид Мишо
Продюссер: Дэвид Линд, Дэвид Мишо, Лиз Уоттс
Сценарий: Дэвид Мишо, Джоэл Эдгертон
Бюджет: $12 000 000
Премьера в мире: 18 мая 2014

IMDB 6.60 (14 889)


В ролях: Гай Пирс, Роберт Паттинсон, Чан Кьень, Тек Конг Лим, Скут МакНэйри, Таванда Маниймо, Дэвид Филд, Скотт Перри, Ричард Грин, Бен Армер

Описание: Главный герой преследует по дикой австралийской природе банду, угнавшую его автомобиль, и оказывается в ловушке.

Качество: HDRip
Формат: AVI
Видео кодек: XviD
Аудио кодек: AC3
Видео: XviD, 1442 Кбит/с, 720х304, 23.976 fps
Аудио#1: Русский: AC3, 2 ch, 384 Кбит/с, 48.0 KHz
Аудио#2: Английский: AC3, 6 ch, 448 Кбит/с, 48.0 KHz
Сэмпл
General
Complete name : /home/sb753/files/The Rover.avi
Format : AVI
Format/Info : Audio Video Interleave
Format profile : OpenDML
File size : 2.04 GiB
Duration : 1h 42mn
Overall bit rate : 2 839 Kbps
Writing application : VirtualDubMod 1.5.10.2 (build 2540/release)
Writing library : VirtualDubMod build 2540/release

Video
ID : 0
Format : MPEG-4 Visual
Format profile : Advanced Simple@L5
Format settings, BVOP : 2
Format settings, QPel : No
Format settings, GMC : No warppoints
Format settings, Matrix : Default (MPEG)
Codec ID : XVID
Codec ID/Hint : XviD
Duration : 1h 42mn
Bit rate : 1 989 Kbps
Width : 720 pixels
Height : 304 pixels
Display aspect ratio : 2.35:1
Frame rate : 23.976 fps
Color space : YUV
Chroma subsampling : 4:2:0
Bit depth : 8 bits
Scan type : Progressive
Compression mode : Lossy
Bits/(Pixel*Frame) : 0.379
Stream size : 1.43 GiB (70%)
Writing library : XviD 1.2.1 (UTC 2008-12-04)

Audio #1
ID : 1
Format : AC-3
Format/Info : Audio Coding 3
Mode extension : CM (complete main)
Format settings, Endianness : Big
Codec ID : 2000
Duration : 1h 42mn
Bit rate mode : Constant
Bit rate : 384 Kbps
Channel(s) : 2 channels
Channel positions : Front: L R
Sampling rate : 48.0 KHz
Bit depth : 16 bits
Compression mode : Lossy
Stream size : 283 MiB (14%)
Alignment : Split accross interleaves
Interleave, duration : 42 ms (1.00 video frame)
Interleave, preload duration : 500 ms

Audio #2
ID : 2
Format : AC-3
Format/Info : Audio Coding 3
Mode extension : CM (complete main)
Format settings, Endianness : Big
Codec ID : 2000
Duration : 1h 42mn
Bit rate mode : Constant
Bit rate : 448 Kbps
Channel(s) : 6 channels
Channel positions : Front: L C R, Side: L R, LFE
Sampling rate : 48.0 KHz
Bit depth : 16 bits
Compression mode : Lossy
Stream size : 330 MiB (16%)
Alignment : Split accross interleaves
Interleave, duration : 42 ms (1.00 video frame)
Interleave, preload duration : 500 ms

pb.wtf



Скачать Ровер через торрент http://i63.fastpic.ru/big/2014/1010/33/e14ea58f674ea2b6664f2167417ff433.png Скачать, смотреть онлайн Ровер бесплантно в хорошем качестве Описание: Главный герой преследует по дикой австралийской природе банду, угнавшую его автомобиль, и оказывается в ... 9.4 10 24
Торрент: Зарегистрирован [2014-10-13 16:01] · скачан: 480 раз
Статус: √ проверено
Размер: 2.04 GB
Как cкачать? Как скачать Ровер через торрент | UTorrent

% Раздел Тема Автор DL S | L
Фильмы 2014 [DVDrip, WEB-DLRip, HDrip] [ 1.37 GB ] Ровер / The Rover [2014 HDRip многоголосый] Official sound кэп Скачать
1 | 0

28-11-2019 20:33  

Отключить всю рекламу на сайте

10-10-2014 17:04 Ровер Скачать торрент  

Не одного комента!!!!pb.wtf



10-10-2014 19:19 Ровер Скачать торрент  

petr20 писал(а):

Не одного комента!!!!

НИ! Ни одного!!! за двумя зайцами погонишься, ни одного не поймаешь!!! НИpb.wtf



11-10-2014 14:05 Ровер Скачать торрент  

MASSSOL писал(а):

petr20 писал(а):

Не одного комента!!!!

НИ! Ни одного!!! за двумя зайцами погонишься, ни одного не поймаешь!!! НИ

:rofle: :rofle: :rofle: yespb.wtf



12-10-2014 17:07 Ровер Скачать торрент  

Димон_ писал(а):

MASSSOL писал(а):

petr20 писал(а):

Не одного комента!!!!

НИ! Ни одного!!! за двумя зайцами погонишься, ни одного не поймаешь!!! НИ

:rofle: :rofle: :rofle: yes

)pb.wtf



13-10-2014 18:21 Ровер Скачать торрент  

MASSSOL писал(а):

petr20 писал(а):

Не одного комента!!!!

НИ! Ни одного!!! за двумя зайцами погонишься, ни одного не поймаешь!!! НИ

Банили бы за безграмотность )) pb.wtf



14-10-2014 18:11 Ровер Скачать торрент  

Фильм поразил, начало безмолвное, непонятно чё , о чём, когда, только понятно где)) Но потом всё меняется, начинаешь втягиваться, смотреть на эти безжизненные просторы, люди, выглядящие как перегнивший мусор, и потом эта история с машиной. которую у Пирса своровали, и брошенный умирать брат , одного из грабителей, и всё думаешь что же будет, а то что будет - это как раз самое интересное, сюжет необычный, хотя кто -то мб скажет по другому, я был в конце фильма под впечатлением и думал, какова главная идея в этом фильме, и понял её так: Можно не любить себя , других , и желать и себе и другим смерти, но есть обязательно то, ради кого/чего ты готов на всё, потому что всё что в итоге остаётся у тебя - воспоминания!!!!стоит ли смотреть и понять этот фильм как-то по другому? СТОИТ!!!pb.wtf



16-10-2014 10:04 Ровер Скачать торрент  

фильм не о чем, если и смотреть только 2x скоростиpb.wtf



24-11-2014 04:36 Ровер Скачать торрент  

Цитата:

Добавлен: 2014-10-13 19:01 (1 мес. 10 д. назад) Торрент скачан:293 раза

Поблагодарили: 53

pb.wtf



    Дорогой пользователь! Огромная просьба, поблагодарите релизера, оцените раздачу и оставьте свои комментарий, если Вы скачали Ровер через торрент бесплатно!
    Комментировать посты могут только пользователи прошедшие не сложную регистрацию
    Показать сообщения:    

    Ровер через торрент
    Скачать бесплатно Ровер
    Ровер скачать торрент
    Ровер смотреть онлайн
    Cкачать фильм Ровер бесплатно
    Ровер скачать торрент в хорошем качестве
    Ровер смотреть онлайн бесплатно в хорошем качестве


    Вы не можете начинать темы
    Вы не можете отвечать на сообщения
    Вы не можете редактировать свои сообщения
    Вы не можете удалять свои сообщения
    Вы не можете голосовать в опросах
    Вы не можете прикреплять файлы к сообщениям
    Вы можете скачивать файлы