1 сезон

3 сезон

iTunes

1

iTunes

MVO

iTunes

13

1 сезон

RePack

30

Deluxe

pack

Лицензия

ВАЖНО

ИГРА 18+

pack

RePack

MK11

RePack

jed

RePack

fifa19

RePack

RDR2

RePack

NEED FOR SPEED™ PAYBACK

4 сезон

9 сезон

Бесстыжие 9 сезон

Все сериалы

все сериалы на PB.wtf

RePack

FAR CRY 5

Anonymous, доброй ночи, мы катастрофически не успеваем собрать деньги на оплату серверов, помогите нам пожалуйста 5,10,15р., для нас важна любая помощь . В качестве благодарности мы отключим Вам всю рекламу на сайте (укажите свой ник в строку Ваше имя)!

×
  
Magnet ссылка

Волки / Wolves (Дэвид Хэйтер / David Hayter) [2014, ужасы, боевик, DVD5] R5 pb.wtf

Волки через торрент pb.wtf

Размер: 3.39 GB | Добавлен: 6 лет 8 мес. назад | Торрент скачан:36 раз
Скачать  

15-11-2014 19:33 Волки Скачать торрент  


Волки / Wolves
Страна: Франция
Студия: Canadian Audio-Visual Certification Office (CAVCO), Canadian Film or Video Production Tax Credit (CPTC), Copper Heart Entertainment, Government of Ontario, Ontario Media Development Corporation (OMDC), Ontario Production Services Tax Credit, The, Téléfilm Canada, TF1 International
Жанр: ужасы, боевик
Год выпуска: 2014
Мировая премьера: 4 августа 2014
Российская премьера: 28 августа 2014
Дата выхода DVD: 18 ноября 2014
Продолжительность: 01:26:59
Перевод: Профессиональный (дублированный) [Лицензия]
Cубтитры: нет
Оригинальная аудиодорожка: нет
Режиссер: Дэвид Хэйтер / David Hayter
В ролях: Джейсон Момоа, Мерритт Паттерсон, Лукас Тилл, Кейтлин Вонг, Стивен МакХэтти, Дженнифер Хейл, Джон Пайпер-Фергюсон, Адам Батчер, Мелани Скрофано, Мириам МакДональд
Описание: Кайдену Ричардсу 18 лет. Он — капитан студенческой футбольной команды, который встречается с самой завидной девушкой округа. Но однажды проснувшись ночью, он видит, что его родители зверски убиты. Кайден понимает, что это его рук дело — он превратился в дикого волка. В панике Кайден бежит из города и находит убежище в небольшом городке Волчий Хребет, который окутан еще более страшными тайнами.
Бонусы: нет

Качество: DVD5 R5
Формат: DVD-Video
Видео кодек: MPEG2
Аудио кодек: AC3
Видео: PAL 16:9 (720x576(0.501)) MPEG Video, 25,000 кадр/сек, 5192 Кбит/сек
Аудио: Russian (Dolby AC3, 6 ch) 448 Кбит/сек, 48,0 КГц



Title: Volki.2014.DVD5
Size: 3.39 Gb ( 3 558 554,00 KBytes ) - DVD-5
Enabled regions: 1, 2, 3, 4, 5, 6, 7, 8

VTS_01 :
Play Length: 01:26:59
Video: PAL 16:9 (720x576) VBR, Auto Letterboxed
Audio:
Russian (Dolby AC3, 6 ch)

VTS_02 :
Play Length: 00:00:08
Video: PAL 4:3 (720x576) VBR

VTS_03 :
Play Length: 00:00:04+00:00:04
Video: PAL 16:9 (720x576) VBR, Auto Letterboxed

VTS_04 :
Play Length: 00:00:15
Video: PAL 4:3 (720x576) VBR
Audio:
English (Dolby AC3, 2 ch)

VTS_05 :
Play Length: 00:00:12
Video: PAL 16:9 (720x576) VBR, Auto Letterboxed
Subtitles:
English

* Menus Information *

VIDEO_TS Menu
Video:
NTSC 4:3 (720x480) VBR
Auto Pan&Scan, Auto Letterboxed
Russian Language Unit :
Title Menu

VTS_01 Menu
Video:
PAL 16:9 (720x576) VBR
Auto Letterboxed
Russian Language Unit :
Root Menu
Chapter (PTT) Menu

VTS_02 Menu
Video:
NTSC 4:3 (720x480) VBR
Auto Pan&Scan, Auto Letterboxed
Language Unit :
Subpicture Menu
Angle menu
Language Unit :

Language Unit :
Audio Menu
Chapter (PTT) Menu
Language Unit :

Language Unit :
Audio Menu
Chapter (PTT) Menu

VTS_03 Menu
Video:
NTSC 4:3 (720x480) VBR
Auto Pan&Scan, Auto Letterboxed
Language Unit :
Subpicture Menu
Angle menu
Language Unit :

Language Unit :
Angle menu
Language Unit :
Angle menu
Language Unit :
Angle menu

VTS_04 Menu
Video:
NTSC 4:3 (720x480) VBR
Auto Pan&Scan, Auto Letterboxed
Language Unit :
Subpicture Menu
Angle menu
Language Unit :

Language Unit :
Root Menu
Language Unit :

Language Unit :
Root Menu

VTS_05 Menu
Video:
NTSC 4:3 (720x480) VBR
Auto Pan&Scan, Auto Letterboxed
Language Unit :
Subpicture Menu
Angle menu
Language Unit :

Language Unit :
Root Menu
Subpicture Menu
Audio Menu
Language Unit :

Language Unit :
Root Menu
Subpicture Menu
Audio Menu
Общее
Полное имя : F:\Новинки 2014\Volki.2014.DVD5\VIDEO_TS\VTS_01_3.VOB
Формат : MPEG-PS
Размер файла : 1024 Мбайт
Продолжительность : 24 м.
Режим общего битрейта : Переменный
Общий поток : 5755 Кбит/сек

Видео
Идентификатор : 224 (0xE0)
Формат : MPEG Video
Версия формата : Version 2
Профиль формата : Main@Main
Параметр BVOP формата : Да
Параметр матрицы формата : Выборочная
Параметр GOP формата : M=3, N=15
Format_Settings_PictureStructure : Frame
Продолжительность : 24 м.
Вид битрейта : Переменный
Битрейт : 5192 Кбит/сек
Максимальный битрейт : 8000 Кбит/сек
Ширина : 720 пикселей
Высота : 576 пикселей
Соотношение сторон : 16:9
Частота кадров : 25,000 кадров/сек
Стандарт вещания : PAL
Цветовое пространство : YUV
Субдискретизация насыщенности : 4:2:0
Битовая глубина : 8 бит
Тип развёртки : Чересстрочная
Порядок развёртки : Верхнее поле первое
Метод сжатия : С потерями
Бит/(Пиксели*Кадры) : 0.501
Временной код первого кадра : 00:53:19:04
Оригинал временного кода : Group of pictures header
Размер потока : 924 Мбайт (90%)

Аудио
Идентификатор : 189 (0xBD)-128 (0x80)
Формат : AC-3
Формат/Информация : Audio Coding 3
Расширение режима : CM (complete main)
Параметр Endianness формата : Big
Режим смешивания : DVD-Video
Продолжительность : 24 м.
Вид битрейта : Постоянный
Битрейт : 448 Кбит/сек
Каналы : 6 каналов
Расположение каналов : Front: L C R, Side: L R, LFE
Частота : 48,0 КГц
Битовая глубина : 16 бит
Метод сжатия : С потерями
Задержка видео : -520 мс.
Размер потока : 79,7 Мбайт (8%)










pb.wtf



Скачать Волки через торрент http://i63.fastpic.ru/big/2014/1115/47/9362ef79b70c3562ffc1f219b1b65147.jpg Скачать фильм Волки через торрент бесплантно в хорошем качестве Описание: Кайдену Ричардсу 18 лет. Он — капитан студенческой футбольной команды, который встречается с самой завидной девушкой округа. Но ... 10 10 3
Торрент: Зарегистрирован [2014-11-15 19:33] · скачан: 36 раз
Статус: √ проверено
Размер: 3.39 GB
Как cкачать? Как скачать Волки через торрент | UTorrent

% Раздел Тема Автор DL S | L
Фильмы [HD 720p, 1080p] (Хороший звук DUB, MVO) [ 12.21 GB ] Танцующий с волками / Dances with Wolves [1990 BDRip-HEVC 1080p] [20th Anniversary Edition] MVO [Позитив-Мультимедиа R5] bober100 Скачать
1 | 0
RTS (стратегии в реальном времени) [ 3.12 GB ] Star Wolves 2: The Civil War / Звёздные волки 2: Гражданская война {1.1} [RePack RU Add-on / Strategy / 3D] от R.G. BoxPack R.G.BoxPack Скачать
1 | 0
Фильмы до 2000 г. [ 1.37 GB ] В компании волков / The Company of Wolves [1984. BDRip] от R.G.RealMT veebruar Скачать
1 | 0
Фильмы [HD 720p, 1080p] (Хороший звук DUB, MVO) [ 4.76 GB ] Выжить с волками / Surviving with Wolves / Survivre avec les loups [2007 - Бельгия BDRip 720p] VintMosina Скачать
1 | 0

28-11-2019 20:33  

Отключить всю рекламу на сайте

03-01-2015 11:28 Волки Скачать торрент  

опа джигурда ж :omg:pb.wtf



    Дорогой пользователь! Огромная просьба, поблагодарите релизера, оцените раздачу и оставьте свои комментарий, если Вы скачали Волки через торрент бесплатно! Внесите свою лепту в развитие PiratBit!
    Комментировать посты могут только пользователи прошедшие не сложную регистрацию
    Показать сообщения:    

    Волки через торрент
    Скачать бесплатно Волки
    Волки скачать торрент
    Волки смотреть онлайн
    Cкачать фильм Волки бесплатно
    Волки скачать торрент в хорошем качестве
    Волки смотреть онлайн бесплатно в хорошем качестве


    Вы не можете начинать темы
    Вы не можете отвечать на сообщения
    Вы не можете редактировать свои сообщения
    Вы не можете удалять свои сообщения
    Вы не можете голосовать в опросах
    Вы не можете прикреплять файлы к сообщениям
    Вы можете скачивать файлы