Ссылка на приватное зеркало всего за 1$. Внимание количество ограничено!!!

iTunes

1+1

iTunes

мы

WEB-DL

1

iTunes

Чернобыль

iTunes

Ральф против интернета

Лицензия

ПШазам

Лицензия

Оно 2

Лицензия

30
pack

Вам бонус

ВАЖНО

!!Акция!!

Alien_RageХит недели

RePack

Resident Evil 21

ИГРА 18+

pack

RePack

jed

!!Акция!!

Alien_Rage

RePack

fifa19

RePack

Assassins Creed: Odyssey

RePack

NEED FOR SPEED™ PAYBACK

3 сезон

9 сезон

Бесстыжие 9 сезон

Все сериалы

все сериалы на PB.wtf

RePack

FAR CRY 5
Ребята, катастрофически не хватает 1900р. для оплаты серверов за Октябрь (всвязи с блокировками трафик упал в 3 раза), 1-2р., выручайте.
  

Только Бог простит / Only God Forgives (Николас Виндинг Рефн / Nicolas Winding Refn) [2013, Дания, Франция, Таиланд, США, Швеция, триллер, драма, криминал, HDRip,Профессиональный (многоголосый, закадровый)[TV1000 Action] pb.wtf

Только Бог простит через торрент pb.wtf

Размер: 1.37 GB | Добавлен: 5 лет 3 мес. назад | Торрент скачан:195 раз
Скачать  

25-03-2014 17:59 Только Бог простит Скачать торрент  

Только Бог простит / Only God Forgives

«Time to Meet The Devil»

  • Год выпуска: 2013
  • Страна: Дания, Франция, Таиланд, США, Швеция
  • Жанр: триллер, драма, криминал

  • Продолжительность: 01:29:29
  • Перевод: Профессиональный (многоголосый, закадровый) [TV1000 Action]

  • Субтитры: Нет
  • Режиссер: Николас Виндинг Рефн / Nicolas Winding Refn
  • В ролях:

    Райан Гослинг (Julian), Кристин Скотт Томас (Crystal), Витхая Пансрингарм (Chang), Гордон Браун (Gordon), Ейяинг Рхатха Пхонгам (Mai), Том Бёрк (Billy), Сахайак Бунсанакит (Kim), Питчават Петчаяхон (Phaiban), Чарли Рюдпоканон (Daeng), Ковит Ваттанакуль (Choi Yan Lee), Ванниса Пеунгпа (Kanita), Наруча Чаймареунг (Papa San)
    • Описание:
      Джулиан, бежавший от американского правосудия, руководит в Бангкоке клубом тайского бокса, который служит ему прикрытием для торговли наркотиками. Его мать, глава крупной преступной организации, приезжает из США, чтобы забрать тело своего любимого сына Билли: брата Джулиана только что убили за зверскую расправу над молодой проституткой. Охваченная яростью и жаждой мести мать требует, чтобы Джулиан нашел и покарал убийц. Молодому человеку придется столкнуться с Чангом - странным полицейским на пенсии, которого обожают его коллеги.

    Мировая премьера:22 мая 2013

    • Качество: HDRip
    • Формат: AVI
    • Видео кодек: XviD
    • Аудио кодек:AC3
    • Видео: XviD, 720x384 (1.875), 1984 kbps, 23,976 fps, 0,299 bpp
    • Аудио: AC3 / 2.0 / 48 kHz / 192 kbps / 16 bit


    Код:

    General
    Complete name                            : D:ТорентыT.B0g.Pr073i3.2013.HDRip.1400Mb.avi
    Format                                   : AVI
    Format/Info                              : Audio Video Interleave
    File size                                : 1.37 GiB
    Duration                                 : 1h 29mn
    Overall bit rate                         : 2 186 Kbps
    Writing application                      : VirtualDubMod 1.5.10.2 (build 2540/release)
    Writing library                          : VirtualDubMod build 2540/release

    Video
    ID                                       : 0
    Format                                   : MPEG-4 Visual
    Format profile                           : Advanced Simple@L5
    Format settings, BVOP                    : 2
    Format settings, QPel                    : No
    Format settings, GMC                     : No warppoints
    Format settings, Matrix                  : Custom
    Codec ID                                 : XVID
    Codec ID/Hint                            : XviD
    Duration                                 : 1h 29mn
    Bit rate                                 : 1 985 Kbps
    Width                                    : 720 pixels
    Height                                   : 384 pixels
    Display aspect ratio                     : 1.875
    Frame rate                               : 23.976 fps
    Color space                              : YUV
    Chroma subsampling                       : 4:2:0
    Bit depth                                : 8 bits
    Scan type                                : Progressive
    Compression mode                         : Lossy
    Bits/(Pixel*Frame)                       : 0.299
    Stream size                              : 1.24 GiB (91%)
    Writing library                          : XviD 1.2.1 (UTC 2008-12-04)

    Audio
    ID                                       : 1
    Format                                   : AC-3
    Format/Info                              : Audio Coding 3
    Mode extension                           : CM (complete main)
    Codec ID                                 : 2000
    Duration                                 : 1h 29mn
    Bit rate mode                            : Constant
    Bit rate                                 : 192 Kbps
    Channel(s)                               : 2 channels
    Channel positions                        : Front: L R
    Sampling rate                            : 48.0 KHz
    Bit depth                                : 16 bits
    Compression mode                         : Lossy
    Stream size                              : 123 MiB (9%)
    Alignment                                : Split accross interleaves
    Interleave, duration                     : 42 ms (1.00 video frame)
    Interleave, preload duration             : 500 ms

    Скриншоты:

    Трейлеры к фильмам [2014]
    © Оформление by Raven pb.wtf



  • Скачать Только Бог простит через торрент http://i4.imageban.ru/out/2014/03/25/854514afad08f81e82fcf905cfd85437.jpg Скачать фильм Только Бог простит через торрент бесплантно в хорошем качестве Описание:Джулиан, бежавший от американского правосудия, руководит в Бангкоке клубом тайского бокса, который служит ему прикрытием для ... 9.2 10 21
    Торрент: Зарегистрирован [2014-09-04 11:48] · скачан: 195 раз
    Статус: √ проверено
    Размер: 1.37 GB
    Как cкачать? Как скачать Только Бог простит через торрент | qTorrent

    % Раздел Тема Автор DL S | L
    Арт-хаус и авторское кино [ 1.3 GB ] Только Бог простит / Only God Forgives [2013 BDRip-AVC] MVO [TV1000 Action] potroks Скачать
    3 | 0
    T Арт-хаус и авторское кино [ 1.46 GB ] Только Бог простит / Only God Forgives [2013 BDRip-AVC Любительский многоголосый] potroks Скачать
    2 | 0
    Арт-хаус и авторское кино [ 749 MB ] Только Бог простит / Only God Forgives [ 2013 Дания Таиланд Швеция HDRip] VO Назаров Владимир ФёдорOFF Скачать
    1 | 0
    T Арт-хаус и авторское кино [ 1.4 GB ] Только Бог простит / Only God Forgives [2013 Таиланд Швеция WEB-DLRip Любительский [HamsterStudio] Ворон Скачать
    1 | 0
    T Фильмы с авторской озвучкой [ 1.37 GB ] Только Бог простит / Only God Forgives [ 2013 Таиланд Швеция WEB-DLRip ] VO [Алексей Матвеев "Doctor_Joker"] Ворон Скачать
    1 | 0

    28-11-2019 20:33  

    Отключить всю рекламу на сайте

    05-09-2014 06:45 Только Бог простит Скачать торрент  

    Настоящая психоделика. Очень сильный фильм. Тем, кто умеет оценивать хорошие фильмы- рекомендую. Любителям блокбастеров и тупых боевиков смотреть не стоитpb.wtf



      Дорогой пользователь! Огромная просьба, поблагодарите релизера, оцените раздачу и оставьте свои комментарий, если Вы скачали Только Бог простит через торрент бесплатно! Внесите свою лепту в развитие PiratBit!
      Комментировать посты могут только пользователи прошедшие не сложную регистрацию
      Показать сообщения:    

      Только Бог простит через торрент
      Скачать бесплатно Только Бог простит
      Только Бог простит скачать торрент
      Только Бог простит смотреть онлайн
      Cкачать фильм Только Бог простит бесплатно
      Только Бог простит скачать торрент в хорошем качестве
      Только Бог простит смотреть онлайн бесплатно в хорошем качестве


      Вы не можете начинать темы
      Вы не можете отвечать на сообщения
      Вы не можете редактировать свои сообщения
      Вы не можете удалять свои сообщения
      Вы не можете голосовать в опросах
      Вы не можете прикреплять файлы к сообщениям
      Вы можете скачивать файлы