Ссылка на приватное зеркало нашего сайта всего за 1$. Внимание количество ограничено!!!

2 сезон

iTunes

1 сезон

1

iTunes

iTunes

iTunes

1 сезон

RePack

30

ИГРА 18+

pack

ВАЖНО

!!Акция!!

Alien_RageХит недели

RePack

MK11
pack

Забери бонус

RePack

jed

!!Акция!!

Alien_Rage

RePack

fifa19

RePack

Assassins Creed: Odyssey

RePack

NEED FOR SPEED™ PAYBACK

4 сезон

9 сезон

Бесстыжие 9 сезон

Все сериалы

все сериалы на PB.wtf

RePack

FAR CRY 5
  

Джезабель / Jessabelle (Кевин Гротерт / Kevin Greutert) [2014, США, ужасы, триллер, WEB-DLRip,Любительский (одноголосый)[datynet] pb.wtf

Джезабель через торрент pb.wtf

Размер: 1.13 GB | Добавлен: 5 лет 11 мес. назад | Торрент скачан:256 раз
Скачать  

13-11-2014 06:57 Джезабель Скачать торрент  

Джезабель / Jessabelle

Год выпуска: 2014
Страна: США
Жанр: ужасы, триллер

Продолжительность: 01:30:09
Перевод: Любительский (одноголосый)[datynet]
Субтитры: Нет
Режиссер: Кевин Гротерт / Kevin Greutert
В ролях: Сара Снук (Jessie), Джоэль Картер (Kate), Марк Веббер (Preston), Дэвид Эндрюс (Leon), Ана де ла Регера (Rosaura), Эмбер Стивенс (Dead Girl), Крис Эллис (Sheriff Pruitt), Брайан Хэллисей (Mark), Вон Уилсон (Moses), Лариса Олейник (Sam), Фран Беннетт (Mrs. Davis), Paul Garrett (Christophe)
Описание:
После трагической аварии, унесшей жизни мужа Джесси и их еще нерожденного ребенка, девушка оказывается прикована к инвалидному креслу и вынуждена переехать к своему отцу, проживающему в отдаленном особняке. Вскоре она обнаруживает загадочные видеозаписи, снятые ее давно умершей матерью. Джесси с ужасом понимает, что таинственные предсказания начинают сбываться...
Рейтинг
imdb.com: 5.40 (1267)
MPAA: PG-13 - Детям до 13 лет просмотр не желателен
Качество: WEB-DLRip
Формат: AVI
Видео кодек: XviD
Аудио кодек:MP3
Видео: XviD, 720x400 (16:9), 1593 kbps, 23,976 fps, 0,231 bpp
Аудио: MP3 / 2.0 / 44 kHz / 192 kbps /

General
Complete name : D:\torrent\Джезабель 2014 WEB-DLRip.avi
Format : AVI
Format/Info : Audio Video Interleave
File size : 1.13 GiB
Duration : 1h 30mn
Overall bit rate : 1 795 Kbps
Writing library : VirtualDub build 34753/release

Video
ID : 0
Format : MPEG-4 Visual
Format profile : Simple@L5
Format settings, BVOP : No
Format settings, QPel : No
Format settings, GMC : No warppoints
Format settings, Matrix : Default (H.263)
Codec ID : XVID
Codec ID/Hint : XviD
Duration : 1h 30mn
Bit rate : 1 593 Kbps
Width : 720 pixels
Height : 400 pixels
Display aspect ratio : 16:9
Frame rate : 23.976 fps
Color space : YUV
Chroma subsampling : 4:2:0
Bit depth : 8 bits
Scan type : Progressive
Compression mode : Lossy
Bits/(Pixel*Frame) : 0.231
Stream size : 1.00 GiB (89%)
Writing library : Lavc56.1.100

Audio
ID : 1
Format : MPEG Audio
Format version : Version 1
Format profile : Layer 3
Codec ID : 55
Codec ID/Hint : MP3
Duration : 1h 30mn
Bit rate mode : Constant
Bit rate : 192 Kbps
Channel(s) : 2 channels
Sampling rate : 44.1 KHz
Compression mode : Lossy
Stream size : 124 MiB (11%)
Alignment : Split accross interleaves
Interleave, duration : 42 ms (1.00 video frame)
Interleave, preload duration : 500 ms



pb.wtf



Скачать Джезабель через торрент http://i5.imageban.ru/out/2014/11/13/8f02c2633acb1e2706e2ae5b7f31e359.jpg Скачать фильм Джезабель через торрент бесплантно в хорошем качестве Описание: После трагической аварии, унесшей жизни мужа Джесси и их еще нерожденного ребенка, девушка оказывается прикована к инвалидному ... 8.3 10 15
Торрент: Зарегистрирован [2014-11-15 09:30] · скачан: 256 раз
Статус: √ проверено
Размер: 1.13 GB
Как cкачать? Как скачать Джезабель через торрент | qTorrent

% Раздел Тема Автор DL S | L
Фильмы [HD 720p, 1080p] (Хороший звук DUB, MVO) [ 6.56 GB ] Джезабель / Jessabelle [2014 BDRip 720p / ] Ворон Скачать
1 | 0
Фильмы 2014 [DVDrip, WEB-DLRip, HDrip] [ 1.37 GB ] Джезабель / Jessabelle [2014 HDRip ] Ворон Скачать
1 | 0
Фильмы [HD 720p, 1080p] (Хороший звук DUB, MVO) [ 11.58 GB ] Джезабель / Jessabelle [2014 BDRip 1080p / ] Ворон Скачать
1 | 0
Фильмы 2014 (Звук TS, Cam, VO, DVO) [ 1.36 GB ] Джезабель / Jessabelle [2014 WEB-DLRip Любительский двухголосый [Студия "Paradox"] Ворон Скачать
1 | 0
Фильмы [HD 720p, 1080p] (Хороший звук DUB, MVO) [ 12.59 GB ] Джезабель / Jessabelle [2014 BDRip 1080p] DVO+MVO+VO Strelok453 Скачать
1 | 0

28-11-2019 20:33  

Отключить всю рекламу на сайте

15-11-2014 15:39 Джезабель Скачать торрент  

 

jump88 писал(а):

[qpost=undefined]Детям до 13 лет просмотр не желателен

Тема сисек раскрыта?pb.wtf



16-11-2014 06:22 Джезабель Скачать торрент  

дааа вечерок скоротать пойдет worrypb.wtf



16-11-2014 16:52 Джезабель Скачать торрент  

Мда!!! Во какие ужасы нынче пошли,тут наоборот надо ограничение, от 13 лет и выше не желательно к просмотру !!! pb.wtf



    Дорогой пользователь! Огромная просьба, поблагодарите релизера, оцените раздачу и оставьте свои комментарий, если Вы скачали Джезабель через торрент бесплатно! Внесите свою лепту в развитие PiratBit!
    Комментировать посты могут только пользователи прошедшие не сложную регистрацию
    Показать сообщения:    

    Джезабель через торрент
    Скачать бесплатно Джезабель
    Джезабель скачать торрент
    Джезабель смотреть онлайн
    Cкачать фильм Джезабель бесплатно
    Джезабель скачать торрент в хорошем качестве
    Джезабель смотреть онлайн бесплатно в хорошем качестве


    Вы не можете начинать темы
    Вы не можете отвечать на сообщения
    Вы не можете редактировать свои сообщения
    Вы не можете удалять свои сообщения
    Вы не можете голосовать в опросах
    Вы не можете прикреплять файлы к сообщениям
    Вы можете скачивать файлы