Anonymous, доброй ночи, присоединяйтесь к нам в Telegram!, здесь всегда актуальный адрес сайта, оперативная поддержка и многое другое!

>

5.6

iTunes

7.4

MVO

5.7

MVO

1

7.7

1 сезон

6.8

iTunes

7.3

1 сезон

13

6.7

1 сезон

8.3

RePack

30

ULTIMATE

pack

9.9

Лицензия

ВАЖНО

ИГРА 18+

pack

7.3

RePack

MK11

7.7

RePack

jed

7.8

RePack

fifa19

8.5

RePack

RDR2

RePack

NEED FOR SPEED™ PAYBACK

4 сезон

9 сезон

Бесстыжие 9 сезон

Все сериалы

все сериалы на PB.wtf

RePack

FAR CRY 5

Anonymous, доброй ночи, мы катастрофически не успеваем собрать деньги на оплату серверов, помогите нам пожалуйста 5,10,15р., для нас важна любая помощь . В качестве благодарности мы отключим Вам всю рекламу на сайте (укажите свой ник в строку Ваше имя)!

×
  
Magnet ссылка

Универ. Новая общага / 7 сезон / 8 (128) серия (Константин Смирнов, Максим Зыков) [2014, Россия, комедия, WEB-DLRip) pb.wtf

Универ. Новая общага через торрент pb.wtf

Размер: 319 MB | Добавлен: 7 лет 1 мес. назад | Торрент скачан:342 раза
Смотреть онлайн Универ. Новая общага | Скачать    Ребята, помогите собрать деньги на оплату серверов!!!

11-09-2014 08:56 Универ. Новая общага Скачать торрент  

Универ. Новая общага



  • Год выпуска: 2014
  • Страна: Россия
  • Жанр: комедия

  • Продолжительность: 00:24:51
  • Перевод: Не требуется

  • Режиссер: Константин Смирнов, Максим Зыков
  • В ролях:

    Арарат Кещян (Майкл), Станислав Ярушин (Антон), Анна Кузина (Яна Семакина), Настасья Самбурская (Кристина Соколовская), Анна Хилькевич (Маша Белова), Елена Валюшкина (Зоя Михайловна), Ашот Кещян (Брат Майкла)

  • Описание:
    "Универ. Новая общага" - продолжение сериала "Универ". Оставленным на второй год пятикурсникам Антону и Кузе привалило счастье. Их старая общага идет под снос, и в новом корпусе их селят в блок с тремя девушками - Кристиной, Машей и Яной. В роли аспиранта в универ возвращается и Майкл - чтобы откосить от армии. Ребята стали старше и романтичнее. Теперь им хочется не только секса и тусовок, но и настоящих чувств. Однако вызвать взаимность у зазноб не так просто, как кажется..
  • Рейтинг:



  • Качество: WEB-DLRip
  • Формат: :AVI
  • Видео кодек: XviD
  • Аудио кодек: MP3
  • Видео: 720x400 (16:9), 1899 kbps, 25 fps, 0,264 bpp
  • Аудио: 2.0 / 48 kHz / 128 kbps
  • Релиз от: GEKADOL
    Не нашли то, что искали? Для вас "Стол заказов" "Жмём сюда!"

    Код:

    General
    Complete name                            : D:\Фильмы\Univer.Novaya.Obshchaga.s.128.2014.WEB-DLRip.avi
    Format                                   : AVI
    Format/Info                              : Audio Video Interleave
    File size                                : 361 MiB
    Duration                                 : 24mn 51s
    Overall bit rate                         : 2 032 Kbps
    Writing library                          : VirtualDub build 35491/release

    Video
    ID                                       : 0
    Format                                   : MPEG-4 Visual
    Format profile                           : Advanced Simple@L5
    Format settings, BVOP                    : 1
    Format settings, QPel                    : No
    Format settings, GMC                     : No warppoints
    Format settings, Matrix                  : Default (H.263)
    Muxing mode                              : Packed bitstream
    Codec ID                                 : XVID
    Codec ID/Hint                            : XviD
    Duration                                 : 24mn 51s
    Bit rate                                 : 1 899 Kbps
    Width                                    : 720 pixels
    Height                                   : 400 pixels
    Display aspect ratio                     : 16:9
    Frame rate                               : 25.000 fps
    Color space                              : YUV
    Chroma subsampling                       : 4:2:0
    Bit depth                                : 8 bits
    Scan type                                : Progressive
    Compression mode                         : Lossy
    Bits/(Pixel*Frame)                       : 0.264
    Stream size                              : 338 MiB (93%)
    Writing library                          : XviD 64

    Audio
    ID                                       : 1
    Format                                   : MPEG Audio
    Format version                           : Version 1
    Format profile                           : Layer 3
    Mode                                     : Joint stereo
    Mode extension                           : MS Stereo
    Codec ID                                 : 55
    Codec ID/Hint                            : MP3
    Duration                                 : 24mn 51s
    Bit rate mode                            : Constant
    Bit rate                                 : 128 Kbps
    Channel(s)                               : 2 channels
    Sampling rate                            : 44.1 KHz
    Compression mode                         : Lossy
    Stream size                              : 22.7 MiB (6%)
    Alignment                                : Split accross interleaves
    Interleave, duration                     : 16386 ms (409.65 video frames)


    Скриншоты:
    скриншот   скриншот   скриншот   скриншот   скриншот   скриншот  


    pb.wtf



  • Скачать Универ. Новая общага через торрент https://pic.kartinco.top/new/img/2014-09/01/680z0to0l6iminuhp1ayzua7m.jpg Скачать, смотреть онлайн Универ. Новая общага бесплантно в хорошем качестве Описание: "Универ. Новая общага" - продолжение сериала "Универ". Оставленным на второй год пятикурсникам Антону и Кузе привалило счастье. ... 10 10 7
    Торрент: Зарегистрирован [2014-09-11 08:56] · скачан: 342 раз
    Статус: √ проверено
    Размер: 319 MB
    Как cкачать? Как скачать Универ. Новая общага через торрент | UTorrent

    % Раздел Тема Автор DL S | L
    TNT serials [ 4.42 GB ] Универ. Новая общага / 7 сезон / 1-8 серия из 20 [2014 Россия WEB-DL 720p) GEKADOL Скачать
    1 | 0
    TNT serials [ 580 MB ] Универ. Новая общага / 7 сезон / 8 серия [2014 Россия WEB-DL 720p) GEKADOL Скачать
    1 | 0

    28-11-2019 20:33  

    Отключить всю рекламу на сайте

      Дорогой пользователь! Огромная просьба, поблагодарите релизера, оцените раздачу и оставьте свои комментарий, если Вы скачали Универ. Новая общага через торрент бесплатно!
      Комментировать посты могут только пользователи прошедшие не сложную регистрацию
      Показать сообщения:    

      Универ. Новая общага через торрент
      Скачать бесплатно Универ. Новая общага
      Универ. Новая общага скачать торрент
      Универ. Новая общага смотреть онлайн
      Cкачать фильм Универ. Новая общага бесплатно
      Универ. Новая общага скачать торрент в хорошем качестве
      Универ. Новая общага смотреть онлайн бесплатно в хорошем качестве


      Вы не можете начинать темы
      Вы не можете отвечать на сообщения
      Вы не можете редактировать свои сообщения
      Вы не можете удалять свои сообщения
      Вы не можете голосовать в опросах
      Вы не можете прикреплять файлы к сообщениям
      Вы можете скачивать файлы