Ссылка на приватное зеркало нашего сайта всего за 1$. Внимание количество ограничено!!!

2 сезон

iTunes

1 сезон

1

iTunes

iTunes

iTunes

1 сезон

RePack

30

ИГРА 18+

pack

ВАЖНО

!!Акция!!

Alien_RageХит недели

RePack

MK11
pack

Забери бонус

RePack

jed

!!Акция!!

Alien_Rage

RePack

fifa19

RePack

Assassins Creed: Odyssey

RePack

NEED FOR SPEED™ PAYBACK

4 сезон

9 сезон

Бесстыжие 9 сезон

Все сериалы

все сериалы на PB.wtf

RePack

FAR CRY 5
  

Мальчишник / Bachelor Party (Нил Израэл) [1984, мелодрама, комедия, BDRip 720p] MVO, AVO pb.wtf

Мальчишник через торрент pb.wtf

Размер: 7.4 GB | Добавлен: 5 лет 11 мес. назад | Торрент скачан:26 раз
Скачать  

19-11-2014 06:15 Мальчишник Скачать торрент  

Мальчишник / Bachelor Party

Год выпуска: 1984
Страна: США
Жанр: мелодрама, комедия
Продолжительность: 01:45:29
Перевод: профессиональный многоголосый, авторский
Субтитры: русские, английские (для слабослышащих)

Режиссёр: Нил Израэл

В ролях: Том Хэнкс, Тоуни Китаен, Адриан Змед, Джордж Гриззард, Барбара Стюарт, Роберт Прескотт, Уильям Теппер, Уэнди Джо Спербер, Бэрри Даймонд, Гари Гроссман, Майкл Дудикофф, Брэдфорд Бэнкрофт, Мартина Финч, Дебора Хэрмон, Трэйси Смит, Флоренс Шауффлер, Джон Блум, Кеннет Кимминс, Герард Прендергаст, Бретт Бакстер Кларк, Чи-Ту Кумбука, Розэнн Кейтон, Дэни Доутитт, Кэти Митчелл, Кристофер Морли, Тони Алессандрини, Моник Габриэль, Анджела Амес, Ричард Лоренцо Эрнандез, Билли Бек, Джим Хадсон, Дин Диттмен, Бен Слэк, Милт Коган, Грег Норберг, Колин Малони, Эрли Рид, Дональд Томпсон, Грегори Браун, Марселино Разо, Пэт Профт, Ребекка Перл

Описание: В последний день перед свадьбой водитель школьного автобуса Рик решает собрать всех друзей на последнюю отвязную вечеринку по принципу «пива и женщин много не бывает». Его невеста Дебби берёт ситуацию под свой контроль и возглавляет отряд верных подружек, направляющихся на мальчишник. Устроив ловушку проституткам, вызванным к Рику, подружки переодеваются и проникают в дом, где проходит вечеринка. Тем временем богатый отец Дебби, недовольный тем, что дочь выходит замуж за неудачника, натравливает на всю компанию бывшего возлюбленного Дебби с целью вернуть дочь любой ценой. Рик доблестно справится с ситуацией, отлично повеселится, не ударит в грязь лицом перед друзьями и при этом сохранит верность своей невесте.



Качество: BDRip 720p Сравнение с исходником
Формат: MKV
Видео кодек: H.264
Аудио кодек: AC3
Видео: 9012 kbps, 1280x694, 23.976 кадра/с, 0.423 bpp
Аудио 1: русский, AC3, 448 kbps, 6 ch, 48 kHz [профессиональный многоголосый]
Аудио 2: русский, AC3, 192 kbps, 2 ch, 48 kHz [авторский, Алексей Михалёв]
Аудио 3: английский, AC3, 192 kbps, 1 ch, 48 kHz [оригинал]

Имеются неименованные главы/чаптеры.

Автор рипа msltel
frame I:929 Avg QP:23.02 size:111123
frame P:24908 Avg QP:24.29 size: 76933
frame B:125915 Avg QP:26.38 size: 41826

Общее
Уникальный идентификатор : 188982951564262670684527751613379453768 (0x8E2CCAE3E08DF49F8C2C01DD610F2348)
Полное имя : D:\Video\Malchishnik.1984.BDRip.720p.mkv
Формат : Matroska
Версия формата : Version 4 / Version 2
Размер файла : 7,40 Гбайт
Продолжительность : 1 ч. 45 м.
Общий поток : 10,0 Мбит/сек
Дата кодирования : UTC 2014-11-18 14:03:09
Программа кодирования : mkvmerge v7.3.0 ('Nouages') 64bit built on Oct 22 2014 18:53:34
Библиотека кодирования : libebml v1.3.0 + libmatroska v1.4.1
DURATION : 01:44:24.090000000
NUMBER_OF_FRAMES : 1829
NUMBER_OF_BYTES : 41540
_STATISTICS_WRITING_APP : mkvmerge v7.3.0 ('Nouages') 64bit built on Oct 22 2014 18:53:34
_STATISTICS_WRITING_DATE_UTC : 2014-11-18 14:03:09
_STATISTICS_TAGS : BPS DURATION NUMBER_OF_FRAMES NUMBER_OF_BYTES

Видео
Идентификатор : 1
Формат : AVC
Формат/Информация : Advanced Video Codec
Профиль формата : High@L4.1
Параметр CABAC формата : Да
Параметр ReFrames формата : 9 кадров
Идентификатор кодека : V_MPEG4/ISO/AVC
Продолжительность : 1 ч. 45 м.
Битрейт : 9012 Кбит/сек
Ширина : 1280 пикселей
Высота : 694 пикселя
Соотношение сторон : 1,85:1
Режим частоты кадров : Постоянный
Частота кадров : 23,976 кадра/сек
Цветовое пространство : YUV
Субдискретизация насыщенности : 4:2:0
Битовая глубина : 8 бит
Тип развёртки : Прогрессивная
Бит/(Пиксели*Кадры) : 0.423
Размер потока : 6,64 Гбайт (90%)
Заголовок : BDRip -- STarankov
Библиотека кодирования : x264 core 142 r2431 ac76440
Настройки программы : cabac=1 / ref=9 / deblock=1:-1:-1 / analyse=0x3:0x113 / me=umh / subme=10 / psy=1 / psy_rd=1.00:0.15 / mixed_ref=1 / me_range=32 / chroma_me=1 / trellis=2 / 8x8dct=1 / cqm=0 / deadzone=21,11 / fast_pskip=1 / chroma_qp_offset=-3 / threads=6 / lookahead_threads=1 / sliced_threads=0 / nr=0 / decimate=1 / interlaced=0 / bluray_compat=0 / constrained_intra=0 / bframes=8 / b_pyramid=2 / b_adapt=2 / b_bias=0 / direct=3 / weightb=1 / open_gop=0 / weightp=2 / keyint=230 / keyint_min=23 / scenecut=40 / intra_refresh=0 / rc_lookahead=40 / rc=crf / mbtree=0 / crf=21.0 / qcomp=0.60 / qpmin=0 / qpmax=69 / qpstep=4 / vbv_maxrate=50000 / vbv_bufsize=62500 / crf_max=0.0 / nal_hrd=none / filler=0 / ip_ratio=1.40 / pb_ratio=1.30 / aq=1:1.00
Язык : English
Default : Да
Forced : Нет
DURATION : 01:45:29.323000000
NUMBER_OF_FRAMES : 151752
NUMBER_OF_BYTES : 7286030544
_STATISTICS_WRITING_APP : mkvmerge v7.3.0 ('Nouages') 64bit built on Oct 22 2014 18:53:34
_STATISTICS_WRITING_DATE_UTC : 2014-11-18 14:03:09
_STATISTICS_TAGS : BPS DURATION NUMBER_OF_FRAMES NUMBER_OF_BYTES

Аудио #1
Идентификатор : 2
Формат : AC-3
Формат/Информация : Audio Coding 3
Расширение режима : CM (complete main)
Параметр Endianness формата : Big
Идентификатор кодека : A_AC3
Продолжительность : 1 ч. 45 м.
Вид битрейта : Постоянный
Битрейт : 448 Кбит/сек
Каналы : 6 каналов
Расположение каналов : Front: L C R, Side: L R, LFE
Частота : 48,0 КГц
Битовая глубина : 16 бит
Метод сжатия : С потерями
Размер потока : 338 Мбайт (4%)
Заголовок : MVO
Язык : Russian
Default : Да
Forced : Нет

Аудио #2
Идентификатор : 3
Формат : AC-3
Формат/Информация : Audio Coding 3
Расширение режима : CM (complete main)
Параметр Endianness формата : Big
Идентификатор кодека : A_AC3
Продолжительность : 1 ч. 45 м.
Вид битрейта : Постоянный
Битрейт : 192 Кбит/сек
Каналы : 2 канала
Расположение каналов : Front: L R
Частота : 48,0 КГц
Битовая глубина : 16 бит
Метод сжатия : С потерями
Размер потока : 145 Мбайт (2%)
Заголовок : AVO (Алексей Михалёв)
Язык : Russian
Default : Нет
Forced : Нет

Аудио #3
Идентификатор : 4
Формат : AC-3
Формат/Информация : Audio Coding 3
Расширение режима : CM (complete main)
Параметр Endianness формата : Big
Идентификатор кодека : A_AC3
Продолжительность : 1 ч. 45 м.
Вид битрейта : Постоянный
Битрейт : 192 Кбит/сек
Каналы : 1 канал
Расположение каналов : Front: C
Частота : 48,0 КГц
Битовая глубина : 16 бит
Метод сжатия : С потерями
Размер потока : 145 Мбайт (2%)
Заголовок : Original
Язык : English
Default : Нет
Forced : Нет

Текст #1
Идентификатор : 5
Формат : UTF-8
Идентификатор кодека : S_TEXT/UTF8
Идентификатор кодека/Информация : UTF-8 Plain Text
Заголовок : русский
Язык : Russian
Default : Нет
Forced : Нет

Текст #2
Идентификатор : 6
Формат : UTF-8
Идентификатор кодека : S_TEXT/UTF8
Идентификатор кодека/Информация : UTF-8 Plain Text
Заголовок : английский (для слабослышащих)
Default : Нет
Forced : Нет

Меню
00:00:00.000 : :Chapter 01
00:06:52.285 : :Chapter 02
00:09:39.078 : :Chapter 03
00:19:35.299 : :Chapter 04
00:24:03.023 : :Chapter 05
00:30:40.171 : :Chapter 06
00:31:28.261 : :Chapter 07
00:37:02.969 : :Chapter 08
00:38:03.948 : :Chapter 09
00:41:23.022 : :Chapter 10
00:47:54.496 : :Chapter 11
00:54:43.780 : :Chapter 12
00:59:13.967 : :Chapter 13
01:04:01.921 : :Chapter 14
01:09:11.772 : :Chapter 15
01:12:53.952 : :Chapter 16
01:21:33.930 : :Chapter 17
01:27:34.332 : :Chapter 18
01:32:12.610 : :Chapter 19
01:34:29.080 : :Chapter 20
01:40:03.080 : :Chapter 21
01:41:36.131 : :Chapter 22
01:45:29.072 : :Chapter 23
pb.wtf



Скачать Мальчишник через торрент http://i68.fastpic.ru/big/2014/1119/ab/34b8cdc175c7d0cb3cbda432b8876eab.jpg Скачать фильм Мальчишник через торрент бесплантно в хорошем качестве Описание: В последний день перед свадьбой водитель школьного автобуса Рик решает собрать всех друзей на последнюю отвязную вечеринку по ... 10 10 4
Торрент: Зарегистрирован [2014-11-19 06:15] · скачан: 26 раз
Статус: √ проверено
Размер: 7.4 GB
Как cкачать? Как скачать Мальчишник через торрент | qTorrent

% Раздел Тема Автор DL S | L
Фильмы [HD 720p, 1080p] (Хороший звук DUB, MVO) [ 15.01 GB ] Мальчишник / Bachelor Party [1984 BDRip 1080p] MVO AVO msltel Скачать
1 | 0

28-11-2019 20:33  

Отключить всю рекламу на сайте

    Дорогой пользователь! Огромная просьба, поблагодарите релизера, оцените раздачу и оставьте свои комментарий, если Вы скачали Мальчишник через торрент бесплатно! Внесите свою лепту в развитие PiratBit!
    Комментировать посты могут только пользователи прошедшие не сложную регистрацию
    Показать сообщения:    

    Мальчишник через торрент
    Скачать бесплатно Мальчишник
    Мальчишник скачать торрент
    Мальчишник смотреть онлайн
    Cкачать фильм Мальчишник бесплатно
    Мальчишник скачать торрент в хорошем качестве
    Мальчишник смотреть онлайн бесплатно в хорошем качестве


    Вы не можете начинать темы
    Вы не можете отвечать на сообщения
    Вы не можете редактировать свои сообщения
    Вы не можете удалять свои сообщения
    Вы не можете голосовать в опросах
    Вы не можете прикреплять файлы к сообщениям
    Вы можете скачивать файлы