Ссылка на приватное зеркало нашего сайта всего за 1$. Внимание количество ограничено!!!

2 сезон

iTunes

1 сезон

1

iTunes

iTunes

iTunes

1 сезон

RePack

30

ИГРА 18+

pack

ВАЖНО

!!Акция!!

Alien_RageХит недели

RePack

MK11
pack

Забери бонус

RePack

jed

!!Акция!!

Alien_Rage

RePack

fifa19

RePack

Assassins Creed: Odyssey

RePack

NEED FOR SPEED™ PAYBACK

4 сезон

9 сезон

Бесстыжие 9 сезон

Все сериалы

все сериалы на PB.wtf

RePack

FAR CRY 5
  

Глаза звезды / Звездные глаза / Starry Eyes (Kevin Kolsch, Dennis Widmyer) [2014, США, ужасы, WEB-DLRip, Любительский (двухголосый)[den904, DeadSno] pb.wtf

Глаза звезды через торрент pb.wtf

Размер: 1.4 GB | Добавлен: 5 лет 11 мес. назад | Торрент скачан:195 раз
Скачать  

19-11-2014 06:46 Глаза звезды Скачать торрент  

Глаза звезды / Звездные глаза / Starry Eyes


  • Год выпуска: 2014
  • Страна: США
  • Жанр: ужасы
  • Продолжительность: 01:35:51
  • Перевод: Любительский (двухголосый)[den904, DeadSno]

  • Режиссер: Kevin Kolsch, Dennis Widmyer
  • В ролях:

    Александра Эссоу (Sarah), Аманда Фуллер (Tracy), Ной Сеган (Danny), Фаббианн Терез (Erin), Шэйн Цвинер (Poe), Натали Кастилло (Ashley), Пэт Хили (Carl), Ник Симмонс (Ginko), Мария Олсен (The Casting Director), Марк Сентер (The Assistant), Louis Dezseran (The Producer), Дэнни Минник (Reggie)

  • Описание:
    Красивая молодая девушка Сара Уокер мечтает стать киноактрисой, но все попытки оборачиваются громким провалом. Сейчас она занимается ненавистным делом, выполняя поручения босса. Постоянно посещая прослушивания Сара надеется, что очередное станет судьбоносным и даст ей возможность проявить себя на больших экранах.
    Красавица готова пойти на всё, чтобы стать известной и популярной. Серия подозрительных прослушиваний у таинственного дуэта, представляющего интересы авторитетной кинокомпании, завершается успехом и мисс Уокер получает главную роль в новом фильме "Серебряный крик".
    Продюсер картины убеждён, что Сара станет настоящей звездой и вскоре исполнятся все её мечты. Расплата за славу и признание оказывается столь ужасной, что девушка будет очень сильно жалеть о своём решении сняться в кино..
  • Рейтинг:



  • Качество: WEB-DLRip
  • Формат: :AVI
  • Видео кодек: XviD
  • Аудио кодек: AC3
  • Видео: 720x304 (2.35:1), 1693 kbps, 23,976 fps, 0,323 bpp
  • Аудио №1: Русский 2.0 / 48 kHz / 192 kbps / 16 bit
  • Аудио №2: Английский 2.0 / 48 kHz / 192 kbps / 16 bit
  • Релиз от: GEKADOL

    Просьба перекачать торрент! Файл был битый!


    Код:

    Общее
    Полное имя                               : D:\Фильмы\Starry.Eyes.2014.WEB-DLRip.CINEMANIA.avi
    Формат                                   : AVI
    Формат/Информация                        : Audio Video Interleave
    Размер файла                             : 1,40 Гбайт
    Продолжительность                        : 1 ч. 35 м.
    Общий поток                              : 2092 Кбит/сек
    Программа кодирования                    : VirtualDubMod 1.5.10.2 (build 2542/release)
    Библиотека кодирования                   : VirtualDubMod build 2542/release

    Видео
    Идентификатор                            : 0
    Формат                                   : MPEG-4 Visual
    Профиль формата                          : Advanced Simple@L5
    Параметр BVOP формата                    : 2
    Параметр QPel формата                    : Нет
    Параметр GMC формата                     : Без точки перехода
    Параметр матрицы формата                 : Default (H.263)
    Режим смешивания                         : Сжатый битовый поток
    Идентификатор кодека                     : XVID
    Идентификатор кодека/Подсказка           : XviD
    Продолжительность                        : 1 ч. 35 м.
    Битрейт                                  : 1693 Кбит/сек
    Ширина                                   : 720 пикселей
    Высота                                   : 304 пикселя
    Соотношение сторон                       : 2,35:1
    Частота кадров                           : 23,976 кадра/сек
    Цветовое пространство                    : YUV
    Субдискретизация насыщенности            : 4:2:0
    Битовая глубина                          : 8 бит
    Тип развёртки                            : Прогрессивная
    Метод сжатия                             : С потерями
    Бит/(Пиксели*Кадры)                      : 0.323
    Размер потока                            : 1,13 Гбайт (81%)
    Библиотека кодирования                   : XviD 64

    Аудио #1
    Идентификатор                            : 1
    Формат                                   : AC-3
    Формат/Информация                        : Audio Coding 3
    Расширение режима                        : CM (complete main)
    Параметр Endianness формата              : Big
    Идентификатор кодека                     : 2000
    Продолжительность                        : 1 ч. 35 м.
    Вид битрейта                             : Постоянный
    Битрейт                                  : 192 Кбит/сек
    Каналы                                   : 2 канала
    Расположение каналов                     : Front: L R
    Частота                                  : 48,0 КГц
    Битовая глубина                          : 16 бит
    Метод сжатия                             : С потерями
    Размер потока                            : 132 Мбайт (9%)
    Выравнивание                             : Разделение по промежуткам
    Продолжительность промежутка             : 42  мс. (1,00 видеокадр)
    Время предзагрузки промежутка            : 500  мс.

    Аудио #2
    Идентификатор                            : 2
    Формат                                   : AC-3
    Формат/Информация                        : Audio Coding 3
    Расширение режима                        : CM (complete main)
    Параметр Endianness формата              : Big
    Идентификатор кодека                     : 2000
    Продолжительность                        : 1 ч. 35 м.
    Вид битрейта                             : Постоянный
    Битрейт                                  : 192 Кбит/сек
    Каналы                                   : 2 канала
    Расположение каналов                     : Front: L R
    Частота                                  : 48,0 КГц
    Битовая глубина                          : 16 бит
    Метод сжатия                             : С потерями
    Размер потока                            : 132 Мбайт (9%)
    Выравнивание                             : Разделение по промежуткам
    Продолжительность промежутка             : 42  мс. (1,00 видеокадр)
    Время предзагрузки промежутка            : 500  мс.


    Скриншоты:



    pb.wtf



  • Скачать Глаза звезды через торрент http://i64.fastpic.ru/big/2014/1119/75/62e3c9c09f0db998fb359f6b3928f375.jpg Скачать фильм Глаза звезды через торрент бесплантно в хорошем качестве Описание: Красивая молодая девушка Сара Уокер мечтает стать киноактрисой, но все попытки оборачиваются громким провалом. Сейчас она ... 10 10 3
    Торрент: Зарегистрирован [2014-11-19 07:48] · скачан: 195 раз
    Статус: T временная
    Размер: 1.4 GB
    Как cкачать? Как скачать Глаза звезды через торрент | qTorrent

    28-11-2019 20:33  

    Отключить всю рекламу на сайте

      Дорогой пользователь! Огромная просьба, поблагодарите релизера, оцените раздачу и оставьте свои комментарий, если Вы скачали Глаза звезды через торрент бесплатно! Внесите свою лепту в развитие PiratBit!
      Комментировать посты могут только пользователи прошедшие не сложную регистрацию
      Показать сообщения:    

      Глаза звезды через торрент
      Скачать бесплатно Глаза звезды
      Глаза звезды скачать торрент
      Глаза звезды смотреть онлайн
      Cкачать фильм Глаза звезды бесплатно
      Глаза звезды скачать торрент в хорошем качестве
      Глаза звезды смотреть онлайн бесплатно в хорошем качестве


      Вы не можете начинать темы
      Вы не можете отвечать на сообщения
      Вы не можете редактировать свои сообщения
      Вы не можете удалять свои сообщения
      Вы не можете голосовать в опросах
      Вы не можете прикреплять файлы к сообщениям
      Вы можете скачивать файлы