Ссылка на приватное зеркало нашего сайта всего за 1$. Внимание количество ограничено!!!

2 сезон

iTunes

1 сезон

1

iTunes

iTunes

iTunes

1 сезон

RePack

30

ИГРА 18+

pack

ВАЖНО

!!Акция!!

Alien_RageХит недели

RePack

MK11
pack

Забери бонус

RePack

jed

!!Акция!!

Alien_Rage

RePack

fifa19

RePack

Assassins Creed: Odyssey

RePack

NEED FOR SPEED™ PAYBACK

4 сезон

9 сезон

Бесстыжие 9 сезон

Все сериалы

все сериалы на PB.wtf

RePack

FAR CRY 5
  

Самолеты: Огонь и вода / Planes: Fire and Rescue (Роберт Ганнавей) [2014 г., мультфильм, комедия, приключения, семейный, HDRip, Дубляж, Лицензия] pb.wtf

Самолеты: Огонь и вода через торрент pb.wtf

Размер: 1.43 GB | Добавлен: 5 лет 11 мес. назад | Торрент скачан:1605 раз
Скачать  

19-11-2014 14:27 Самолеты: Огонь и вода Скачать торрент  

Самолеты: Огонь и вода / Planes: Fire and RescueГод выпуска: 2014
Страна: США
Жанр: мультфильм, комедия, приключения, семейный
Продолжительность: 01:23:39
Перевод: Дубляж, Лицензия

Режиссер: Роберт Ганнавей
Продюссер: Феррелл Баррон, Джон Лассетер
Сценарий: Джеффри М. Ховард, Роберт Ганнавей, Клэй Холл

Бюджет: $50 000 000
Премьера в мире: 15 июля 2014



В ролях: Дэйн Кук, Эд Харрис, Джули Боуэн, Кёртис Армстронг, Джон Майкл Хиггинс, Хэл Холбрук, Уэс Стьюди, Брэд Гэррет, Тери Хэтчер, Стейси Кич

Описание: Самолетик Дасти — который стал уже легендой воздушных гонок вскоре узнает, что его двигатель сильно повреждён, и он никогда не может больше участвовать в скоростных воздушных гонках. Дасти ищет себе новое занятие и знакомится с мужественной пожарно-спасательной командой, которой руководит ветеран авиации вертолёт по имени Ренждер. Узнав насколько тяжела и опасна работа пожарной авиации Дасти поймёт, что такое настоящий героизм и самоотдача и сам захочет стать спасателем.

Качество: HDRip | BDRip 1080p
Формат: AVI
Видео кодек: XviD
Аудио кодек: AC3
Видео: 720x304 (2.35:1), 23.976 fps, XviD build 73, ~2046 kbps avg, 0.39 bit/pixel
Аудио#1: 48 kHz, AC3 Dolby Digital, 3/2 (L,C,R,l,r) + LFE ch, ~384 kbps


Автор рипа: Dean24
скриншот  скриншот  
скриншот  скриншот  

Общее
Полное имя : D:\Для сайта\Rip's\Planes.Fire.and.Rescue.HDRip.avi
Формат : AVI
Формат/Информация : Audio Video Interleave
Размер файла : 1,43 Гбайт
Продолжительность : 1 ч. 23 м.
Общий поток : 2440 Кбит/сек
Библиотека кодирования : VirtualDub build 35491/release

Видео
Идентификатор : 0
Формат : MPEG-4 Visual
Профиль формата : Simple@L4a
Параметр BVOP формата : Нет
Параметр QPel формата : Нет
Параметр GMC формата : Без точки перехода
Параметр матрицы формата : Default (H.263)
Идентификатор кодека : XVID
Идентификатор кодека/Подсказка : XviD
Продолжительность : 1 ч. 23 м.
Битрейт : 2047 Кбит/сек
Ширина : 720 пикселей
Высота : 304 пикселя
Соотношение сторон : 2,35:1
Частота кадров : 23,976 кадра/сек
Цветовое пространство : YUV
Субдискретизация насыщенности : 4:2:0
Битовая глубина : 8 бит
Тип развёртки : Прогрессивная
Метод сжатия : С потерями
Бит/(Пиксели*Кадры) : 0.390
Размер потока : 1,20 Гбайт (84%)
Библиотека кодирования : XviD 73

Аудио
Идентификатор : 1
Формат : AC-3
Формат/Информация : Audio Coding 3
Расширение режима : CM (complete main)
Параметр Endianness формата : Big
Идентификатор кодека : 2000
Продолжительность : 1 ч. 23 м.
Вид битрейта : Постоянный
Битрейт : 384 Кбит/сек
Каналы : 6 каналов
Расположение каналов : Front: L C R, Side: L R, LFE
Частота : 48,0 КГц
Битовая глубина : 16 бит
Метод сжатия : С потерями
Размер потока : 230 Мбайт (16%)
Выравнивание : Соединение по промежуткам
Продолжительность промежутка : 42 мс. (1,00 видеокадр)
Время предзагрузки промежутка : 512 мс.

pb.wtf



Скачать Самолеты: Огонь и вода через торрент http://pic.kartinco.top/images/8/lze86.jpg Скачать фильм Самолеты: Огонь и вода через торрент бесплантно в хорошем качестве Описание: Самолетик Дасти — который стал уже легендой воздушных гонок вскоре узнает, что его двигатель сильно повреждён, и он никогда не ... 9.8 10 43
Info! Золотая раздача, скачанное не засчитывается.
Торрент: Зарегистрирован [2014-11-19 14:27] · скачан: 1 605 раз
Статус: √ проверено
Размер: 1.43 GB
Как cкачать? Как скачать Самолеты: Огонь и вода через торрент | qTorrent

% Раздел Тема Автор DL S | L
3D Мультфильмы [ 4.37 GB ] Самолеты: Огонь и вода / Planes: Fire and Rescue [2014 Мультфильм BDRip 1080p ] Анаглиф slaventi-69 Скачать
1 | 0
Зарубежные Мультфильмы (BDRip 1080p, 720p, Blu-ray, BD-Remux) [ 4.48 GB ] Самолеты: Огонь и вода / Planes: Fire and Rescue [2014 мультфильм BDRip 1080p дублированный () Anonymous Скачать
2 | 0
Зарубежные Мультфильмы (DVD) [ 5.61 GB ] Самолеты: Огонь и вода / Planes: Fire and Rescue [2014 мультфильм DVD9] R5 voovaz Скачать
1 | 0
Зарубежные Мультфильмы (BDRip 1080p, 720p, Blu-ray, BD-Remux) [ 7.54 GB ] Самолеты: Огонь и вода / Planes: Fire and Rescue [2014 мультфильм BDRip 1080p ] Ворон Скачать
1 | 0
Видео (iPhone, iPod Touch) [ 1.68 GB ] Самолеты: Огонь и вода / Planes: Fire and Rescue [2014 мультфильм BDRip 720p ] makarevich Скачать
1 | 0
Иностранные мультфильмы [ 1.37 GB ] Самолеты: Огонь и вода / Planes: Fire and Rescue [2014 мультфильм HDRip ] Ворон Скачать
1 | 0
Зарубежные Мультфильмы (BDRip 1080p, 720p, Blu-ray, BD-Remux) [ 20.49 GB ] Самолеты: Огонь и вода / Planes: Fire and Rescue [2014 BD-Remux ] Бумер Скачать
1 | 0

28-11-2019 20:33  

Отключить всю рекламу на сайте

05-12-2014 13:27 Самолеты: Огонь и вода Скачать торрент  

смотрел в кинотеатре с младшим, хороший мультpb.wtf



13-12-2014 15:39 Самолеты: Огонь и вода Скачать торрент  

мульт не плох,но вам не кажется, что говорящие машины это не нормально. pb.wtf



    Дорогой пользователь! Огромная просьба, поблагодарите релизера, оцените раздачу и оставьте свои комментарий, если Вы скачали Самолеты: Огонь и вода через торрент бесплатно! Внесите свою лепту в развитие PiratBit!
    Комментировать посты могут только пользователи прошедшие не сложную регистрацию
    Показать сообщения:    

    Самолеты: Огонь и вода через торрент
    Скачать бесплатно Самолеты: Огонь и вода
    Самолеты: Огонь и вода скачать торрент
    Самолеты: Огонь и вода смотреть онлайн
    Cкачать фильм Самолеты: Огонь и вода бесплатно
    Самолеты: Огонь и вода скачать торрент в хорошем качестве
    Самолеты: Огонь и вода смотреть онлайн бесплатно в хорошем качестве


    Вы не можете начинать темы
    Вы не можете отвечать на сообщения
    Вы не можете редактировать свои сообщения
    Вы не можете удалять свои сообщения
    Вы не можете голосовать в опросах
    Вы не можете прикреплять файлы к сообщениям
    Вы можете скачивать файлы