новый адрес
Ссылка на приватное зеркало всего за 1$. Внимание количество ограничено!!!

iTunes

1+1

iTunes

мы

WEB-DL

1

iTunes

Чернобыль

iTunes

Ральф против интернета

Лицензия

ПШазам

Лицензия

Оно 2

Лицензия

30
pack

Вам бонус

ВАЖНО

!!Акция!!

Alien_RageХит недели

RePack

Resident Evil 21

ИГРА 18+

pack

RePack

jed

!!Акция!!

Alien_Rage

RePack

fifa19

RePack

Assassins Creed: Odyssey

RePack

NEED FOR SPEED™ PAYBACK

3 сезон

9 сезон

Бесстыжие 9 сезон

Все сериалы

все сериалы на PB.wtf

RePack

FAR CRY 5
Ребята, катастрофически не хватает 1900р. для оплаты серверов за Октябрь (всвязи с блокировками трафик упал в 3 раза), 1-2р., выручайте.
  

Свой среди чужих , Чужой среди своих (Никита Михалков) [1974 г., история, военный, приключения, DVD9] pb.wtf

Свой среди чужих , Чужой среди своих через торрент pb.wtf

Размер: 7.25 GB | Добавлен: 5 лет назад | Торрент скачан:25 раз
Скачать  

19-11-2014 16:23 Свой среди чужих , Чужой среди своих Скачать торрент  

Свой среди чужих , Чужой среди своих
Год выпуска: 1974
Страна: СССР
Жанр: история, военный, приключения
Продолжительность: 01:35:15

Режиссер: Никита Михалков



В ролях: Юрий Богатырев, Анатолий Солоницын, Сергей Шакуров, Александр Пороховщиков, Николай Пастухов, Александр Кайдановский, Никита Михалков, Александр Калягин, Николай Засухин, Константин Райкин, Александр Адабашьян, Павел Лебешев.

Описание: Действие этого психологического "вестерна" происходит в 20-е годы в маленьком губернском городке на юге России. Гражданская война кончилась, но до полной победы большевиков еще далеко. Группа бандитов из бывших белых офицеров грабит поезд с золотом, на которое нужно было купить хлеб для голодающих, и пятеро друзей, бывших красных бойцов, вступают с ними в смертельную схватку. Получается так, что подозрение в предательстве падает на одного из них (первая роль Богатырева в полнометражном кино), и, сбежав от товарищей, он один должен вернуть золото, чтобы доказать свою невиновность.

Качество: DVD9
Формат: DVD Video
Видео кодек: MPEG2
Аудио кодек: AC3
Видео: 720x576 (2.35:1), 25.000 fps, 7 000 Kbps (0.675 bit/pixel)
Аудио#1: 48.0 KHz, 6 ch, 448 Kbps, CBR
Аудио #2: 48.0 KHz, 1 ch, 192 Kbps, CBR
бщее
Полное имя : H:\СВОЙ СРЕДИ ЧУЖИХ, ЧУЖОЙ СРЕДИ СВОИХ\Svoy_sredi_chuzhih_chuzhoj_sredi_svoix_\VIDEO_TS\VTS_02_1.VOB
Формат : MPEG-PS
Размер файла : 1024 Мбайт
Продолжительность : 17 м.
Общий поток : 8038 Кбит/сек

Видео
Идентификатор : 224 (0xE0)
Формат : MPEG Video
Версия формата : Version 2
Профиль формата : Main@Main
Параметр BVOP формата : Да
Параметр матрицы формата : Выборочная
Параметр GOP формата : M=3, N=15
Продолжительность : 17 м.
Битрейт : 7238 Кбит/сек
Ширина : 720 пикселей
Высота : 576 пикселей
Соотношение сторон : 4:3
Частота кадров : 25,000 кадров/сек
Стандарт вещания : PAL
Цветовое пространство : YUV
Субдискретизация насыщенности : 4:2:0
Битовая глубина : 8 бит
Метод сжатия : С потерями
Бит/(Пиксели*Кадры) : 0.698
Временной код первого кадра : 00:00:00:00
Оригинал временного кода : Group of pictures header
Размер потока : 922 Мбайт (90%)
Основные цвета : BT.601 PAL
Характеристики трансфера : BT.470 System B, BT.470 System G
Коэффициенты матрицы : BT.601

Аудио #1
Идентификатор : 189 (0xBD)-129 (0x81)
Формат : AC-3
Формат/Информация : Audio Coding 3
Расширение режима : CM (complete main)
Параметр Endianness формата : Big
Режим смешивания : DVD-Video
Продолжительность : 14 м.
Вид битрейта : Постоянный
Битрейт : 448 Кбит/сек
Каналы : 6 каналов
Расположение каналов : Front: L C R, Side: L R, LFE
Частота : 48,0 КГц
Битовая глубина : 16 бит
Метод сжатия : С потерями
Задержка видео : 3 м. 11 с.
Размер потока : 46,8 Мбайт (5%)

Аудио #2
Идентификатор : 189 (0xBD)-128 (0x80)
Формат : AC-3
Формат/Информация : Audio Coding 3
Расширение режима : CM (complete main)
Параметр Endianness формата : Big
Режим смешивания : DVD-Video
Продолжительность : 4 с. 96 мс.
Вид битрейта : Постоянный
Битрейт : 192 Кбит/сек
Каналы : 1 канал
Расположение каналов : Front: C
Частота : 48,0 КГц
Битовая глубина : 16 бит
Метод сжатия : С потерями
Размер потока : 96,0 Кбайт (0%)

Меню


Свой среди чужих, чужой среди своих скачать торрент


pb.wtf



Скачать Свой среди чужих , Чужой среди своих через торрент http://pic.kartinco.top/images/8/fwaph.jpg Скачать фильм Свой среди чужих , Чужой среди своих через торрент бесплантно в хорошем качестве Описание: Действие этого психологического "вестерна" происходит в 20-е годы в маленьком губернском городке на юге России. Гражданская война ... 9.7 10 9
Info! Золотая раздача, скачанное не засчитывается.
Торрент: Зарегистрирован [2014-11-19 16:27] · скачан: 25 раз
Статус: √ проверено
Размер: 7.25 GB
Как cкачать? Как скачать Свой среди чужих , Чужой среди своих через торрент | qTorrent

% Раздел Тема Автор DL S | L
Кино СССР [ 4.7 GB ] Свой среди чужих чужой среди своих [1974 HDTV 1080i] bober100 Скачать
1 | 0
Родина / Чужой среди своих / Homeland [ 8.15 GB ] Родина / Чужой среди своих / Homeland / Сезон: 7 / Серии: 1-12 из 12 [2018 WEB-DLRip] MVO [Амедиа] bober100 Скачать
1 | 0
Приключения-путешествия [ 219 MB ] Эдуард Володарский Никита Михалков - Свой среди чужих чужой среди своих [Вячеслав Манылов 1876 96 kbps MP3] bober100 Скачать
1 | 0
Родина / Чужой среди своих / Homeland [ 8.06 GB ] Родина / Чужой среди своих / Homeland / Сезон: 7 / Серии: 1-12 из 12 [2018 WEB-DLRip] MVO [Lostfilm] bober100 Скачать
2 | 0
Родина / Чужой среди своих / Homeland [ 7.7 GB ] Родина / Чужой среди своих / Homeland / Сезон: 7 / Серии: 1-12 из 12 [2018 WEB-DLRip] DVO [SunshineStudio] bober100 Скачать
1 | 0
Родина / Чужой среди своих / Homeland [ 13.63 GB ] Родина / Чужой среди своих / Homeland / Сезон: 7 / Серии: 1-12 из 12 [2018 WEB-DL 720p] DVO [SunshineStudio] bober100 Скачать
1 | 0
Родина / Чужой среди своих / Homeland [ 53.65 GB ] Родина / Чужой среди своих / Homeland / Сезон: 7 / Серии: 1-12 из 12 [2018 WEB-DL 1080p] MVO [Амедиа] bober100 Скачать
1 | 0

28-11-2019 20:33  

Отключить всю рекламу на сайте

    Дорогой пользователь! Огромная просьба, поблагодарите релизера, оцените раздачу и оставьте свои комментарий, если Вы скачали Свой среди чужих , Чужой среди своих через торрент бесплатно! Внесите свою лепту в развитие PiratBit!
    Комментировать посты могут только пользователи прошедшие не сложную регистрацию
    Показать сообщения:    

    Свой среди чужих , Чужой среди своих через торрент
    Скачать бесплатно Свой среди чужих , Чужой среди своих
    Свой среди чужих , Чужой среди своих скачать торрент
    Свой среди чужих , Чужой среди своих смотреть онлайн
    Cкачать фильм Свой среди чужих , Чужой среди своих бесплатно
    Свой среди чужих , Чужой среди своих скачать торрент в хорошем качестве
    Свой среди чужих , Чужой среди своих смотреть онлайн бесплатно в хорошем качестве


    Вы не можете начинать темы
    Вы не можете отвечать на сообщения
    Вы не можете редактировать свои сообщения
    Вы не можете удалять свои сообщения
    Вы не можете голосовать в опросах
    Вы не можете прикреплять файлы к сообщениям
    Вы можете скачивать файлы