Всегда рабочее зеркало без VPN и Proxy просто перед .vidak.icu напиши любое слово или цифру, Пример http://jpgy.vidak.icu

MVO

2 сезон

2 сезон

1

1 сезон

iTunes

2 сезон

13

1 сезон

Deluxe

pack

Рекомендуем

Пиратка

30

ВАЖНО

RePack

MK11

RePack

jed

RePack

fifa19

RePack

RDR2

RePack

NEED FOR SPEED™ PAYBACK

Кинопоиск HD

6 сезон

 Острые козырьки 6 сезон

Все сериалы

все сериалы на PB.wtf

RePack

FAR CRY 5

Anonymous, нам критически не хватает 5601 руб. на оплату серверов и переферии за Апрель, помоги нам пожалуйста, вся надежда только на тебя. В благодарность мы отключим тебе всю рекламу на сайте!

×
  
Magnet ссылка

Новый Comedy Club [2014 г., Телепередача, Юмор, SATRip] эфир от 21.11.2014 pb.wtf

Новый Comedy Club через торрент pb.wtf

Размер: 646 MB | Добавлен: 7 лет 5 мес. назад | Торрент скачан:674 раза
Смотреть онлайн Новый Comedy Club | Скачать    Ребята, помогите собрать деньги на оплату серверов!!!

21-11-2014 13:45 Новый Comedy Club Скачать торрент  

Новый Comedy ClubГод выпуска: 2014
Страна: Россия
Жанр: Телепередача, Юмор
Продолжительность: ~ 00:46:34
Режиссер / Телекомпания:

Описание:
Как всегда, Comedy Club собрал все самое смешное, чтобы оставаться самым крутым юмористическим шоу на телевидении. Только самые лучшие номера от резидентов "Сomedy Сlub". Выдержанный юмор, проверенный временем и многомиллионной телевизионной аудиторией. Павел Воля бросает пить, а Тимур Батрутдинов оказывает клиентам интимные услуги. Кроме того в выпуске - лучшие песни от участников грушинского бард-н-блюз фестиваля в Америке, экспериментальный юмор от Гарика Мартиросяна и многое другое. Вы помните, что теперь Новый Comedy Club – больше чем просто шоу на сцене? Камеры готовы? Музыканты готовы? Зрители готовы? Поехали!

Качество: SATRip
Формат: AVI
Видео кодек: xvid
Аудио кодек: MP3
Видео: 720x400 (16:9), 25.000 fps, ~1800 kbps
Аудио#1: 48 kHz, MPEG Layer 3, 1 ch, ~128 kbps avg

Скриншоты:скриншот   скриншот   скриншот   скриншот   скриншот  

Код:

Формат : AVI
Формат/Информация : Audio Video Interleave
Размер файла : 646 Мбайт
Продолжительность : 46 м.
Общий поток : 1938 Кбит/сек
Программа кодирования : VirtualDubMod 1.5.10.3 | www.virtualdub-fr.org || (build 2550/release)
Библиотека кодирования : VirtualDub build 32507/release

Видео
Идентификатор : 0
Формат : MPEG-4 Visual
Профиль формата : Advanced Simple@L5
Параметр BVOP формата : 2
Параметр QPel формата : Нет
Параметр GMC формата : Без точки перехода
Параметр матрицы формата : Default (MPEG)
Идентификатор кодека : XVID
Идентификатор кодека/Подсказка : XviD
Продолжительность : 46 м.
Битрейт : 1800 Кбит/сек
Ширина : 720 пикселей
Высота : 400 пикселей
Соотношение сторон : 16:9
Частота кадров : 25,000 кадров/сек
Цветовое пространство : YUV
Субдискретизация насыщенности : 4:2:0
Битовая глубина : 8 бит
Тип развёртки : Прогрессивная
Метод сжатия : С потерями
Бит/(Пиксели*Кадры) : 0.250
Размер потока : 600 Мбайт (93%)
Библиотека кодирования : XviD 1.2.1 (UTC 2008-12-04)

Аудио
Идентификатор : 1
Формат : MPEG Audio
Версия формата : Version 1
Профиль формата : Layer 3
Идентификатор кодека : 55
Идентификатор кодека/Подсказка : MP3
Продолжительность : 46 м.
Вид битрейта : Постоянный
Битрейт : 128 Кбит/сек
Каналы : 1 канал
Частота : 48,0 КГц
Метод сжатия : С потерями
Размер потока : 42,6 Мбайт (7%)
Выравнивание : Соединение по промежуткам
Продолжительность промежутка : 40 мс. (1,00 видеокадр)
Время предзагрузки промежутка : 504 мс.
Библиотека кодирования : LAME3.99r
Настройки программы : -m m -V 4 -q 2 -lowpass 20.5 -b 128



pb.wtf



Скачать Новый Comedy Club через торрент https://pic1.kartinco.top/images/21/s3dik5vrm3.jpg Скачать, смотреть онлайн Новый Comedy Club [2014 г., Телепередача, Юмор, SATRip] эфир от 21.11.2014 бесплантно в хорошем качестве Описание:Как всегда, Comedy Club собрал все самое смешное, чтобы оставаться самым крутым юмористическим шоу на телевидении. Только самые ... 9.5 10 22
Info! Золотая раздача, скачанное не засчитывается.
Торрент: Зарегистрирован [2014-11-21 13:45] · скачан: 674 раз
Статус: √ проверено
Размер: 646 MB
Как cкачать? Как скачать Новый Comedy Club через торрент | UTorrent

28-11-2019 20:33  

Отключить всю рекламу на сайте

21-11-2014 15:34 Новый Comedy Club Скачать торрент  

а почему старый выпуск?!pb.wtf



21-11-2014 15:51 Новый Comedy Club Скачать торрент  

granulizzzer писал(а):

а почему старый выпуск?!

потому что фантазия кончилась у КК, это нормальное явлениеpb.wtf



    Дорогой пользователь! Огромная просьба, поблагодарите релизера, оцените раздачу и оставьте свои комментарий, если Вы скачали Новый Comedy Club через торрент бесплатно!
    Комментировать посты могут только пользователи прошедшие не сложную регистрацию
    Показать сообщения:    

    Новый Comedy Club через торрент
    Скачать бесплатно Новый Comedy Club
    Новый Comedy Club скачать торрент
    Новый Comedy Club смотреть онлайн
    Cкачать фильм Новый Comedy Club бесплатно
    Новый Comedy Club скачать торрент в хорошем качестве
    Новый Comedy Club смотреть онлайн бесплатно в хорошем качестве


    Вы не можете начинать темы
    Вы не можете отвечать на сообщения
    Вы не можете редактировать свои сообщения
    Вы не можете удалять свои сообщения
    Вы не можете голосовать в опросах
    Вы не можете прикреплять файлы к сообщениям
    Вы можете скачивать файлы