Ссылка на приватное зеркало всего за 1$. Внимание количество ограничено!!!

iTunes

iTunes

iTunes

1

iTunes

iTunes

iTunes

iTunes

iTunes

30
pack

$ от Little Big

ВАЖНО

!!Акция!!

Alien_RageХит недели

RePack

Resident Evil 21

ИГРА 18+

pack

RePack

jed

!!Акция!!

Alien_Rage

RePack

fifa19

RePack

Assassins Creed: Odyssey

RePack

NEED FOR SPEED™ PAYBACK

4 сезон

9 сезон

Бесстыжие 9 сезон

Все сериалы

все сериалы на PB.wtf

RePack

FAR CRY 5
  

Бабы устроены как-то иначе / Baby sa jakies inne (Марек Котерский ) [2011, Польша, комедия, HDTVRip 720p, Любительское (одноголосное) [PashaUp] pb.wtf

Бабы устроены как-то иначе через торрент pb.wtf

Размер: 2.77 GB | Добавлен: 5 лет 7 мес. назад | Торрент скачан:268 раз
Скачать  

21-11-2014 23:23 Бабы устроены как-то иначе Скачать торрент  

Бабы устроены как-то иначе / Baby sa jakies inne

Год выпуска: 2011
Выпущено:: Польша
Жанр: комедия
Длительность: 01:30:07
Перевод: Любительское (одноголосное) [PashaUp]

Режиссер:Марек Котерский

В ролях: Адам Воронович, Роберт Венцкевич, Михал Котерский, Патриция Марчиняк, Мацей Музяль

Описание:
Адам и Пучо — это раздражительные эгоцентричные ворчуны. Путешествуя на машине они разговаривают про женщин. Про то, какими они видят их в повседневной жизни — дома, в постели, на работе, в политике, на улице. Обсуждают своих жён, бывших девушек и безответнуют любовь. У них нет никаких иллюзий что с бабами можно ужиться и они уверены что именно бабы являются источником всех проблем.

Качество: HDTVRip 720p
Формат: MKV
Видео кодек: MPEG4
Аудио кодек: AC3
Видео: 1280x720, 3787 kbps, 25,000 fps, 0,187 bpp
Аудио#1: русский / 2.0 / 48 kHz / 192 kbps / 16 bit
Аудио#2: Polish / 5.1 / 48 kHz / 448 kbps / 16 bit
Субтитры: Russian [ifirf86], English








Общее
Уникальный идентификатор : 239357506717821688580788612382630410304 (0xB4129436BBDD2E5A9F9CC025CDB8F840)
Полное имя : D:\uTorrent\Man.Chicks.Are.Just.Different.2011.HDTV.720p.CINEMANIA.mkv
Формат : Matroska
Версия формата : Version 4 / Version 2
Размер файла : 2,77 Гбайт
Продолжительность : 1 ч. 30 м.
Режим общего битрейта : Переменный
Общий поток : 4399 Кбит/сек
Название фильма : Release Group CINEMANIA
Дата кодирования : UTC 2014-11-20 22:55:20
Программа кодирования : mkvmerge v7.3.0 ('Nouages') 64bit built on Oct 22 2014 18:53:34
Библиотека кодирования : libebml v1.3.0 + libmatroska v1.4.1

Видео
Идентификатор : 1
Формат : AVC
Формат/Информация : Advanced Video Codec
Профиль формата : High@L4.1
Параметр CABAC формата : Да
Параметр ReFrames формата : 3 кадра
Идентификатор кодека : V_MPEG4/ISO/AVC
Продолжительность : 1 ч. 30 м.
Вид битрейта : Переменный
Битрейт : 3767 Кбит/сек
Максимальный битрейт : 40,0 Мбит/сек
Ширина : 1280 пикселей
Высота : 720 пикселей
Соотношение сторон : 16:9
Режим частоты кадров : Постоянный
Частота кадров : 25,000 кадров/сек
Цветовое пространство : YUV
Субдискретизация насыщенности : 4:2:0
Битовая глубина : 8 бит
Тип развёртки : Прогрессивная
Бит/(Пиксели*Кадры) : 0.163
Размер потока : 2,31 Гбайт (83%)
Заголовок : Release Group CINEMANIA
Библиотека кодирования : x264 core 120 r2164 da19765
Настройки программы : cabac=1 / ref=4 / deblock=1:0:0 / analyse=0x3:0x133 / me=hex / subme=6 / psy=1 / psy_rd=1.00:0.00 / mixed_ref=1 / me_range=16 / chroma_me=1 / trellis=1 / 8x8dct=1 / cqm=0 / deadzone=21,11 / fast_pskip=1 / chroma_qp_offset=-2 / threads=36 / sliced_threads=0 / slices=4 / nr=0 / decimate=1 / interlaced=0 / bluray_compat=0 / constrained_intra=0 / bframes=3 / b_pyramid=1 / b_adapt=1 / b_bias=0 / direct=1 / weightb=1 / open_gop=0 / weightp=0 / keyint=24 / keyint_min=2 / scenecut=40 / intra_refresh=0 / rc_lookahead=24 / rc=2pass / mbtree=1 / bitrate=3767 / ratetol=1.0 / qcomp=0.60 / qpmin=10 / qpmax=51 / qpstep=4 / cplxblur=20.0 / qblur=0.5 / vbv_maxrate=40000 / vbv_bufsize=30000 / nal_hrd=vbr / ip_ratio=1.40 / aq=1:1.00
Язык : Polish
Default : Да
Forced : Нет

Аудио #1
Идентификатор : 2
Формат : AC-3
Формат/Информация : Audio Coding 3
Расширение режима : CM (complete main)
Параметр Endianness формата : Big
Идентификатор кодека : A_AC3
Продолжительность : 1 ч. 30 м.
Вид битрейта : Постоянный
Битрейт : 192 Кбит/сек
Каналы : 2 канала
Расположение каналов : Front: L R
Частота : 48,0 КГц
Битовая глубина : 16 бит
Метод сжатия : С потерями
Размер потока : 124 Мбайт (4%)
Заголовок : PashaUp
Язык : Russian
Default : Да
Forced : Да

Аудио #2
Идентификатор : 3
Формат : AC-3
Формат/Информация : Audio Coding 3
Расширение режима : CM (complete main)
Параметр Endianness формата : Big
Идентификатор кодека : A_AC3
Продолжительность : 1 ч. 30 м.
Вид битрейта : Постоянный
Битрейт : 448 Кбит/сек
Каналы : 6 каналов
Расположение каналов : Front: L C R, Side: L R, LFE
Частота : 48,0 КГц
Битовая глубина : 16 бит
Метод сжатия : С потерями
Размер потока : 289 Мбайт (10%)
Язык : Polish
Default : Нет
Forced : Нет

Текст #1
Идентификатор : 4
Формат : UTF-8
Идентификатор кодека : S_TEXT/UTF8
Идентификатор кодека/Информация : UTF-8 Plain Text
Язык : Russian
Default : Да
Forced : Да

Текст #2
Идентификатор : 5
Формат : UTF-8
Идентификатор кодека : S_TEXT/UTF8
Идентификатор кодека/Информация : UTF-8 Plain Text
Заголовок : ifirf86
Язык : Russian
Default : Нет
Forced : Нет

Текст #3
Идентификатор : 6
Формат : UTF-8
Идентификатор кодека : S_TEXT/UTF8
Идентификатор кодека/Информация : UTF-8 Plain Text
Язык : English
Default : Нет
Forced : Нет

Внимание: присутствует ненормативная лексика!
pb.wtf



Скачать Бабы устроены как-то иначе через торрент http://pic.kartinco.top/images/8/xvsn6.jpg Скачать фильм Бабы устроены как-то иначе через торрент бесплантно в хорошем качестве Описание: Адам и Пучо — это раздражительные эгоцентричные ворчуны. Путешествуя на машине они разговаривают про женщин. Про то, какими они ... 10 10 11
Торрент: Зарегистрирован [2014-11-22 04:39] · скачан: 268 раз
Статус: T временная
Размер: 2.77 GB
Как cкачать? Как скачать Бабы устроены как-то иначе через торрент | qTorrent



Последний раз редактировалось: _Fenixx_ни мужик ни баба (2014-11-22 05:29), всего редактировалось 8 раз(а)

28-11-2019 20:33  

Отключить всю рекламу на сайте

21-11-2014 23:25 Бабы устроены как-то иначе Скачать торрент  

Курица не птица, баба - не человек!pb.wtf



21-11-2014 23:43 Бабы устроены как-то иначе Скачать торрент  

Цитата:

Качество: HDTV 720p

должно быть:

Код:

HDTVRip 720p


В тех.данных

Цитата:

23,976 fps

а в MI

Цитата:

Частота кадров : 25,000 кадров/сек

определитесь.

Цитата:

Аудио#1: английский / 6.1

должно быть тогда уж

Цитата:

Аудио#2

Цитата:

Выпущено:: Польша

Цитата:

Аудио#1: английский

точно английский? может польский или французский (раз уж запись с canal+)

Цитата:

6.1

сколько со звуком работаю первый раз вижу такую канальность. Может всё-таки 5.1?

Добавьте предупреждение о присутствии ненормативной лексики.

Об исправлении сообщите в лс со ссылкой на раздачу.
pb.wtf





Последний раз редактировалось: Messa-fan (2014-11-22 05:22), всего редактировалось 1 раз

22-11-2014 00:21 Бабы устроены как-то иначе Скачать торрент  

как фильмец?pb.wtf



22-11-2014 05:17 Бабы устроены как-то иначе Скачать торрент  

Перевод: Любительское (одноголосое) [PashaUp] rofl
Ты сам поляк что-ли? Пиши по-русскиpb.wtf



24-11-2014 11:35 Бабы устроены как-то иначе Скачать торрент  

Sallen S7 писал(а):

как фильмец?

бомба :rofle:pb.wtf



    Дорогой пользователь! Огромная просьба, поблагодарите релизера, оцените раздачу и оставьте свои комментарий, если Вы скачали Бабы устроены как-то иначе через торрент бесплатно! Внесите свою лепту в развитие PiratBit!
    Комментировать посты могут только пользователи прошедшие не сложную регистрацию
    Показать сообщения:    

    Бабы устроены как-то иначе через торрент
    Скачать бесплатно Бабы устроены как-то иначе
    Бабы устроены как-то иначе скачать торрент
    Бабы устроены как-то иначе смотреть онлайн
    Cкачать фильм Бабы устроены как-то иначе бесплатно
    Бабы устроены как-то иначе скачать торрент в хорошем качестве
    Бабы устроены как-то иначе смотреть онлайн бесплатно в хорошем качестве


    Вы не можете начинать темы
    Вы не можете отвечать на сообщения
    Вы не можете редактировать свои сообщения
    Вы не можете удалять свои сообщения
    Вы не можете голосовать в опросах
    Вы не можете прикреплять файлы к сообщениям
    Вы можете скачивать файлы