1 сезон

3 сезон

iTunes

1

iTunes

MVO

iTunes

13

1 сезон

RePack

30

Deluxe

pack

Лицензия

ВАЖНО

ИГРА 18+

pack

RePack

MK11

RePack

jed

RePack

fifa19

RePack

RDR2

RePack

NEED FOR SPEED™ PAYBACK

4 сезон

9 сезон

Бесстыжие 9 сезон

Все сериалы

все сериалы на PB.wtf

RePack

FAR CRY 5

Anonymous, доброй ночи, мы катастрофически не успеваем собрать деньги на оплату серверов, помогите нам пожалуйста 5,10,15р., для нас важна любая помощь . В качестве благодарности мы отключим Вам всю рекламу на сайте (укажите свой ник в строку Ваше имя)!

×
  
Magnet ссылка

Неудержимые 3 / The Expendables 3 (Патрик Хьюз / Patrick Hughes) [2014, боевик, триллер, приключения, DVD9] R5 pb.wtf

Неудержимые 3 через торрент pb.wtf

Размер: 6.2 GB | Добавлен: 6 лет 8 мес. назад | Торрент скачан:130 раз
Скачать  

22-11-2014 09:38 Неудержимые 3 Скачать торрент  


Неудержимые 3 / The Expendables 3
«Сборная Голливуда снова в игре»
Страна: США, Франция
Студия: Davis-Films, Ex3 Productions, Fipex Holding, Lionsgate, Millennium Films, Nu Image / Millennium Films, Nu-Image Films
Жанр: боевик, триллер, приключения
Год выпуска: 2014
Мировая премьера: 4 августа 2014
Российская премьера: 14 августа 2014
Дата выхода DVD: 27 ноября 2014
Дата выхода Blu-Ray: 27 ноября 2014
Продолжительность: 02:01:39
Перевод: Профессиональный (дублированный) [Лицензия]
Cубтитры: нет
Оригинальная аудиодорожка: нет
Режиссер: Патрик Хьюз / Patrick Hughes
В ролях: Сильвестр Сталлоне, Джейсон Стэйтем, Джет Ли, Антонио Бандерас, Уэсли Снайпс, Дольф Лундгрен, Мэл Гибсон, Харрисон Форд, Арнольд Шварценеггер, Келлан Латс, Терри Крюс, Сарай Гивати, Рэнди Кутюр, Ронда Раузи, Роберт Дави, Наталия Гуслистая, Виктор Ортис, Глен Пауэлл
Описание: Барни, Кристмас и остальные члены команды сходятся лицом к лицу с Конрадом Стоунбэнксом, многие годы назад основавшем вместе с Барни команду «Неудержимых». Впоследствии Стоунбэнкс становится безжалостным торговцем оружием и тем самым превращается в человека, которого Барни было поручено убить. Или по крайней мере он сам так считал. Теперь Стоунбэнкс, один раз уже сумевший обмануть смерть, поставил себе цель покончить с «Неудержимыми» — но у Барни на этот счет свои планы. Барни решает, что в его борьбе «свежий» подход можно противопоставить старым методам, и пополняет ряды людьми, которые моложе, быстрее и технически более подкованные. Так у членов команды «Неудержимых» начинается новая эра. Последняя миссия превращается в столкновение между представителями классической старой школы и экспертами в высоких технологиях.
Бонусы: Трейлер, Создатели и исполнители

Качество: DVD9 R5
Формат: DVD-Video
Видео кодек: MPEG2
Аудио кодек: AC3
Видео: PAL 16:9 (720x576(0.652)) MPEG Video, 25,000 кадр/сек, 6759 Кбит/сек
Аудио: Russian (Dolby AC3, 6 ch) 448 Кбит/сек, 48,0 КГц



Title: Neuderzhimye.3.2014.DVD9
Size: 6.20 Gb ( 6 500 904,00 KBytes ) - DVD-9
Enabled regions: 1, 2, 3, 4, 5, 6, 7, 8

VTS_01 :
Play Length: 00:00:05
Video: PAL 4:3 (720x576) VBR
Audio:
Not specified (Dolby AC3, 2 ch)
Not specified (Dolby AC3, 2 ch)
Not specified (Dolby AC3, 2 ch)
Subtitles:
Not specified
Not specified

VTS_02 :
Play Length: 00:00:07
Video: PAL 16:9 (720x576) VBR, Auto Letterboxed
Subtitles:
Not specified

VTS_03 :
Play Length: 02:01:39
Video: PAL 16:9 (720x576) VBR, Auto Letterboxed
Audio:
Russian (Dolby AC3, 6 ch)

VTS_04 :
Play Length: 00:02:25
Video: PAL 16:9 (720x576) VBR, Auto Letterboxed
Audio:
Not specified (Dolby AC3, 2 ch)
Subtitles:
Not specified

* Menus Information *

VIDEO_TS Menu
Video:
PAL 16:9 (720x576) VBR
Auto Pan&Scan, Auto Letterboxed
English Language Unit :
Title Menu

VTS_01 Menu
Video:
PAL 16:9 (720x576) VBR
Auto Letterboxed
Audio:
Not specified (Dolby AC3, 2 ch)
English Language Unit :
Root Menu

VTS_02 Menu
Video:
PAL 4:3 (720x576) VBR
English Language Unit :
Root Menu

VTS_03 Menu
Video:
PAL 4:3 (720x576) VBR
English Language Unit :
Root Menu
Chapter (PTT) Menu

VTS_04 Menu
Video:
PAL 4:3 (720x576) VBR
English Language Unit :
Root Menu
Общее
Полное имя : F:\Новинки 2014\Neuderzhimye.3.2014.DVD9\VIDEO_TS\VTS_03_2.VOB
Формат : MPEG-PS
Размер файла : 1024 Мбайт
Продолжительность : 19 м.
Режим общего битрейта : Переменный
Общий поток : 7353 Кбит/сек

Видео
Идентификатор : 224 (0xE0)
Формат : MPEG Video
Версия формата : Version 2
Профиль формата : Main@Main
Параметр BVOP формата : Да
Параметр матрицы формата : По умолчанию
Параметр GOP формата : M=3, N=12
Продолжительность : 19 м.
Вид битрейта : Переменный
Битрейт : 6759 Кбит/сек
Максимальный битрейт : 8500 Кбит/сек
Ширина : 720 пикселей
Высота : 576 пикселей
Соотношение сторон : 16:9
Частота кадров : 25,000 кадров/сек
Стандарт вещания : PAL
Цветовое пространство : YUV
Субдискретизация насыщенности : 4:2:0
Битовая глубина : 8 бит
Тип развёртки : Прогрессивная
Метод сжатия : С потерями
Бит/(Пиксели*Кадры) : 0.652
Временной код первого кадра : 00:19:44:14
Оригинал временного кода : Group of pictures header
Размер потока : 941 Мбайт (92%)

Аудио
Идентификатор : 189 (0xBD)-128 (0x80)
Формат : AC-3
Формат/Информация : Audio Coding 3
Расширение режима : CM (complete main)
Параметр Endianness формата : Big
Режим смешивания : DVD-Video
Продолжительность : 19 м.
Вид битрейта : Постоянный
Битрейт : 448 Кбит/сек
Каналы : 6 каналов
Расположение каналов : Front: L C R, Side: L R, LFE
Частота : 48,0 КГц
Битовая глубина : 16 бит
Метод сжатия : С потерями
Задержка видео : -512 мс.
Размер потока : 62,4 Мбайт (6%)










pb.wtf



Скачать Неудержимые 3 через торрент http://i63.fastpic.ru/big/2014/1121/06/e811fa99ba11af025dbdf9f8b4a3dd06.png Скачать фильм Неудержимые 3 через торрент бесплантно в хорошем качестве Описание: Барни, Кристмас и остальные члены команды сходятся лицом к лицу с Конрадом Стоунбэнксом, многие годы назад основавшем вместе с ... 8.2 10 5
Торрент: Зарегистрирован [2014-11-22 09:38] · скачан: 130 раз
Статус: √ проверено
Размер: 6.2 GB
Как cкачать? Как скачать Неудержимые 3 через торрент | UTorrent

% Раздел Тема Автор DL S | L
Фильмы 2014 [DVDrip, WEB-DLRip, HDrip] [ 1.46 GB ] Неудержимые 3 / The Expendables 3 [2014 HDRip-AVC] DUB [] От R.G. PiratFilms White Smoke Скачать
1 | 0

28-11-2019 20:33  

Отключить всю рекламу на сайте

    Дорогой пользователь! Огромная просьба, поблагодарите релизера, оцените раздачу и оставьте свои комментарий, если Вы скачали Неудержимые 3 через торрент бесплатно! Внесите свою лепту в развитие PiratBit!
    Комментировать посты могут только пользователи прошедшие не сложную регистрацию
    Показать сообщения:    

    Неудержимые 3 через торрент
    Скачать бесплатно Неудержимые 3
    Неудержимые 3 скачать торрент
    Неудержимые 3 смотреть онлайн
    Cкачать фильм Неудержимые 3 бесплатно
    Неудержимые 3 скачать торрент в хорошем качестве
    Неудержимые 3 смотреть онлайн бесплатно в хорошем качестве


    Вы не можете начинать темы
    Вы не можете отвечать на сообщения
    Вы не можете редактировать свои сообщения
    Вы не можете удалять свои сообщения
    Вы не можете голосовать в опросах
    Вы не можете прикреплять файлы к сообщениям
    Вы можете скачивать файлы