Всегда рабочее зеркало без VPN и Proxy просто перед .vidak.icu напиши любое слово или цифру, Пример http://zf4b.vidak.icu

Лицензия

MVO

1 сезон

1

1 сезон

iTunes

1 сезон

13

1 сезон

Deluxe

pack

Рекомендуем

Repack

30

ВАЖНО

RePack

MK11

RePack

jed

RePack

fifa19

RePack

RDR2

RePack

NEED FOR SPEED™ PAYBACK

Кинопоиск HD

6 сезон

 Острые козырьки 6 сезон

Все сериалы

все сериалы на PB.wtf

RePack

FAR CRY 5
  
Magnet ссылка

Скуби-Ду: Франкен-монстр / Scooby-Doo! Frankencreepy (Пол МакЭвой) [2014, США, Мультфильм, триллер, семейный, HDRip,Профессиональный многоголосый [Чистый звук] pb.wtf

Скуби-Ду: Франкен-монстр через торрент pb.wtf

Размер: 1.37 GB | Добавлен: 7 лет 8 мес. назад | Торрент скачан:706 раз
Смотреть онлайн Скуби-Ду: Франкен-монстр | Скачать    Ребята, помогите собрать деньги на оплату серверов!!!

22-11-2014 13:51 Скуби-Ду: Франкен-монстр Скачать торрент  

Скуби-Ду: Франкен-монстр / Scooby-Doo! Frankencreepy Год выпуска: 2014
Выпущено:: США, Warner Bros. Animation, Hanna-Barbera Productions
Жанр: Мультфильм, триллер, семейный
Длительность: 01:14:00
Перевод: Профессиональный многоголосый [Чистый звук]

Режиссер:Пол МакЭвой

В ролях:
Фрэнк Уэлкер, Минди Кон, Грэй ДеЛисл, Мэттью Лиллард, Дидрих Бадер, Ди Брэдли Бэйкер, Эрик Бауза, Джефф Беннетт, Сьюзан Блэйксли, Кори Бёртон

Описание:
Компания друзей узнают, что их злобные враги, которых они так долго сажали в тюрьму, вышли и объединились, теперь им нужно скрыться на время. И вот, друзья снова в своем небольшом фургоне и на всех парах едут в Пенсильванию. Прибыв туда, они решаются остановиться в замке.. Но пока друзья думали о том, какой им план разработать по собственному спасению, Скуби и Шегги уже в новые неприятности влипли. Друзей ждет еще больше приключений в загадочном мрачном старинном замке.

Качество: HDRip
Формат: AVI
Видео кодек: XviD
Аудио кодек: AC3
Видео: 720x384, 2328 kbps, 23,976 fps, 0,187 bpp
Аудио#1: русский / 2.0 / 48 kHz / 320 kbps / 16 bit
Субтитры: Отсутствуют









Общее
Полное имя : D:\uTorrent\Scooby-Doo.Frankencreepy.RUSTORRENTS.ORG.HDRip.avi
Формат : AVI
Формат/Информация : Audio Video Interleave
Размер файла : 1,37 Гбайт
Продолжительность : 1 ч. 13 м.
Общий поток : 2650 Кбит/сек
Название фильма : S
Режиссёр : k
Программа кодирования : V
Правообладатель : [

Видео
Идентификатор : 0
Формат : MPEG-4 Visual
Профиль формата : Advanced [email protected]
Параметр BVOP формата : 2
Параметр QPel формата : Нет
Параметр GMC формата : Без точки перехода
Параметр матрицы формата : Выборочная
Идентификатор кодека : XVID
Идентификатор кодека/Подсказка : XviD
Продолжительность : 1 ч. 13 м.
Битрейт : 2328 Кбит/сек
Ширина : 720 пикселей
Высота : 400 пикселей
Соотношение сторон : 16:9
Частота кадров : 23,976 кадра/сек
Цветовое пространство : YUV
Субдискретизация насыщенности : 4:2:0
Битовая глубина : 8 бит
Тип развёртки : Прогрессивная
Метод сжатия : С потерями
Бит/(Пиксели*Кадры) : 0.337
Размер потока : 1,20 Гбайт (88%)
Библиотека кодирования : XviD 1.2.1 (UTC 2008-12-04)

Аудио
Идентификатор : 1
Формат : AC-3
Формат/Информация : Audio Coding 3
Расширение режима : CM (complete main)
Параметр Endianness формата : Big
Идентификатор кодека : 2000
Продолжительность : 1 ч. 12 м.
Вид битрейта : Постоянный
Битрейт : 320 Кбит/сек
Каналы : 2 канала
Расположение каналов : Front: L R
Частота : 48,0 КГц
Битовая глубина : 16 бит
Метод сжатия : С потерями
Размер потока : 165 Мбайт (12%)
Выравнивание : Разделение по промежуткам
Продолжительность промежутка : 43 мс. (1,02 видеокадр)
Время предзагрузки промежутка : 500 мс.

Приятного просмотра! Не забывайте говорить спасибо!pb.wtf



Скачать Скуби-Ду: Франкен-монстр через торрент https://pic1.kartinco.top/images/81/2jrfl.jpg Скачать, смотреть онлайн Скуби-Ду: Франкен-монстр бесплантно в хорошем качестве Описание: Компания друзей узнают, что их злобные враги, которых они так долго сажали в тюрьму, вышли и объединились, теперь им нужно ... 9.9 10 14
Info! Золотая раздача, скачанное не засчитывается.
Торрент: Зарегистрирован [2014-11-22 14:00] · скачан: 706 раз
Статус: T временная
Размер: 1.37 GB
Как cкачать? Как скачать Скуби-Ду: Франкен-монстр через торрент | UTorrent

% Раздел Тема Автор DL S | L
T Зарубежные Мультфильмы (BDRip 1080p, 720p, Blu-ray, BD-Remux) [ 2.35 GB ] Скуби-Ду: Франкен-монстр / Scooby-Doo! Frankencreepy [2014 Мультфильм BDRip 720p многоголосый [Line] Anonymous Скачать
1 | 0

28-11-2019 20:33  

Отключить вcю реклaмy на сайте

    Дорогой пользователь! Огромная просьба, поблагодарите релизера, оцените раздачу и оставьте свои комментарий, если Вы скачали Скуби-Ду: Франкен-монстр через торрент бесплатно!
    Комментировать посты могут только пользователи прошедшие не сложную регистрацию
    Показать сообщения:    

    Скуби-Ду: Франкен-монстр через торрент
    Скачать бесплатно Скуби-Ду: Франкен-монстр
    Скуби-Ду: Франкен-монстр скачать торрент
    Скуби-Ду: Франкен-монстр смотреть онлайн
    Cкачать фильм Скуби-Ду: Франкен-монстр бесплатно
    Скуби-Ду: Франкен-монстр скачать торрент в хорошем качестве
    Скуби-Ду: Франкен-монстр смотреть онлайн бесплатно в хорошем качестве


    Вы не можете начинать темы
    Вы не можете отвечать на сообщения
    Вы не можете редактировать свои сообщения
    Вы не можете удалять свои сообщения
    Вы не можете голосовать в опросах
    Вы не можете прикреплять файлы к сообщениям
    Вы можете скачивать файлы