Ссылка на приватное зеркало нашего сайта всего за 1$. Внимание количество ограничено!!!

2 сезон

iTunes

1 сезон

1

iTunes

iTunes

iTunes

1 сезон

RePack

30

ИГРА 18+

pack

ВАЖНО

!!Акция!!

Alien_RageХит недели

RePack

MK11
pack

Забери бонус

RePack

jed

!!Акция!!

Alien_Rage

RePack

fifa19

RePack

Assassins Creed: Odyssey

RePack

NEED FOR SPEED™ PAYBACK

4 сезон

9 сезон

Бесстыжие 9 сезон

Все сериалы

все сериалы на PB.wtf

RePack

FAR CRY 5
  

Беспокойный участок / Сезон: 1 / Серии 1-16 из 16 (Сергей Алешечкин, Андрей Силкин) [2014 , Россия, мелодрама, детектив, SATRip) pb.wtf

Беспокойный участок через торрент pb.wtf

Размер: 9.2 GB | Добавлен: 5 лет 11 мес. назад | Торрент скачан:197 раз
Скачать  

23-11-2014 03:35 Беспокойный участок Скачать торрент  

Беспокойный участок


  • Год выпуска: 2014

  • Страна: Россия
  • Жанр: мелодрама, детектив
  • Продолжительность: 00:42:09 (Серия)
  • Перевод: Не требуется

  • Режиссер: Сергей Алешечкин, Андрей Силкин
  • В ролях:

    Светлана Антонова, Александр Волков, Александр Наумов, Олег Масленников-Войтов, Михаил Дорожкин, Анфиса Вистингаузен, Дмитрий Смирнов (Макс Давыдов), Наталья Беляева (Мария), Ангелина Добророднова (Кристина), Алина Бабак (Надя), Светлана Уваева

  • Описание:
    Главная героиня этой истории Татьяна Петрова - старший участковый уполномоченный своего района. Обычная рутинная работа: хулиганы, семейные ссоры, мелкие кражи. Но участковой Татьяна была не всегда. Еще совсем недавно она была следователем по особо важным делам. Но одно событие навсегда изменило жизнь Татьяны - во время прогулки в парке у нее пропала дочь.
    Не смирившись с утратой, Татьяна бросила работу, карьеру, сменила район и устроилась обычной «участковой», чтобы искать следы пропавшей девочки теперь уже «на своем участке». Помогает ей в этом бывший коллега по прокуратуре и ее «тайный воздыхатель» - сотрудник Следственного Комитета Владимир Наумов. Попутно героине приходится распутывать совершенно непростые дела, обращая внимание на детали, на которые обычный участковый даже и не взглянул бы. Пытливый ум Татьяны и опыт бывшего следователя позволяет ей довести множество дел до раскрытия.
  • Рейтинг:



  • Качество: SATRip
  • Формат: :AVI
  • Видео кодек: XviD
  • Аудио кодек: MP3
  • Видео: 720x400 (16:9), 1797 kbps, 25 fps, 0,250 bpp
  • Аудио: 2.0 / 48 kHz / 128 kbps
  • Релиз от: GEKADOL

    Код:

    Внимание! Раздача ведётся путём добавления новых серий; при каждом добавлении создаётся новый торрент. Чтобы начать докачку новой серии, пользователям необходимо сделать следующее:
    (1) остановить скачивание,
    (2) удалить старый торрент у себя из клиента (старые серии удалять не надо),
    (3) скачать новый торрент и запустить его у себя в клиенте вместо старого, при этом указать клиенту путь в старую папку куда и должно происходить скачивание новых серий.
    Ваш клиент при этом должен произвести хеширование (проверку) старой папки (если не производит сам - помогите ему сделать это), и будет докачивать только те серии которых у вас ещё нет. Старые серии при этом не удаляются, а продолжают раздаваться!
    Eсли вы уже удалили старые серии, то предотвратить повторную закачку старых серий можно, отжав галочку в соответствующих местах при запуске нового торрента. По возможности, желательно не удалять старые серии как можно дольше чтобы релизёр не столько продолжал раздавать старые серии, а смог сконцентрироваться на новых.


    Код:

    General
    Complete name                            : I:\Bespokoyniy.uchastok.2014.SATRip\Bespokoyniy.uchastok.08.2014.SATRip.avi
    Format                                   : AVI
    Format/Info                              : Audio Video Interleave
    File size                                : 583 MiB
    Duration                                 : 42mn 9s
    Overall bit rate                         : 1 935 Kbps
    Writing application                      : VirtualDubMod 1.5.10.3 | www.virtualdub-fr.org || (build 2550/release)
    Writing library                          : VirtualDub build 29808/release

    Video
    ID                                       : 0
    Format                                   : MPEG-4 Visual
    Format profile                           : Advanced Simple@L5
    Format settings, BVOP                    : 2
    Format settings, QPel                    : No
    Format settings, GMC                     : No warppoints
    Format settings, Matrix                  : Default (H.263)
    Codec ID                                 : XVID
    Codec ID/Hint                            : XviD
    Duration                                 : 42mn 9s
    Bit rate                                 : 1 797 Kbps
    Width                                    : 720 pixels
    Height                                   : 400 pixels
    Display aspect ratio                     : 16:9
    Frame rate                               : 25.000 fps
    Color space                              : YUV
    Chroma subsampling                       : 4:2:0
    Bit depth                                : 8 bits
    Scan type                                : Progressive
    Compression mode                         : Lossy
    Bits/(Pixel*Frame)                       : 0.250
    Stream size                              : 542 MiB (93%)
    Writing library                          : XviD 1.2.1 (UTC 2008-12-04)

    Audio
    ID                                       : 1
    Format                                   : MPEG Audio
    Format version                           : Version 1
    Format profile                           : Layer 3
    Codec ID                                 : 55
    Codec ID/Hint                            : MP3
    Duration                                 : 42mn 9s
    Bit rate mode                            : Constant
    Bit rate                                 : 128 Kbps
    Channel(s)                               : 2 channels
    Sampling rate                            : 48.0 KHz
    Compression mode                         : Lossy
    Stream size                              : 38.6 MiB (7%)
    Alignment                                : Aligned on interleaves
    Interleave, duration                     : 40 ms (1.00 video frame)
    Interleave, preload duration             : 504 ms
    Writing library                          : LAME3.99r
    Encoding settings                        : -m s -V 4 -q 2 -lowpass 17 -b 128


    Скриншоты:
    скриншот   скриншот   скриншот   скриншот   скриншот  
    скриншот  

    Раздача ведётся путём добавления новых серий. Добавлена 16 серия (27.11.2014).Просьба перекачать торрент файл.

    pb.wtf



  • Скачать Беспокойный участок через торрент http://i63.fastpic.ru/big/2014/1123/7c/3dccf3328e57147fab55e2dc5e8db37c.jpg Скачать фильм Беспокойный участок через торрент бесплантно в хорошем качестве Описание: Главная героиня этой истории Татьяна Петрова - старший участковый уполномоченный своего района. Обычная рутинная работа: ... 9.2 10 9
    Info! Золотая раздача, скачанное не засчитывается.
    Торрент: Зарегистрирован [2014-11-27 12:55] · скачан: 197 раз
    Статус: √ проверено
    Размер: 9.2 GB
    Как cкачать? Как скачать Беспокойный участок через торрент | qTorrent

    28-11-2019 20:33  

    Отключить всю рекламу на сайте

      Дорогой пользователь! Огромная просьба, поблагодарите релизера, оцените раздачу и оставьте свои комментарий, если Вы скачали Беспокойный участок через торрент бесплатно! Внесите свою лепту в развитие PiratBit!
      Комментировать посты могут только пользователи прошедшие не сложную регистрацию
      Показать сообщения:    

      Беспокойный участок через торрент
      Скачать бесплатно Беспокойный участок
      Беспокойный участок скачать торрент
      Беспокойный участок смотреть онлайн
      Cкачать фильм Беспокойный участок бесплатно
      Беспокойный участок скачать торрент в хорошем качестве
      Беспокойный участок смотреть онлайн бесплатно в хорошем качестве


      Вы не можете начинать темы
      Вы не можете отвечать на сообщения
      Вы не можете редактировать свои сообщения
      Вы не можете удалять свои сообщения
      Вы не можете голосовать в опросах
      Вы не можете прикреплять файлы к сообщениям
      Вы можете скачивать файлы