Ссылка на приватное зеркало нашего сайта всего за 1$. Внимание количество ограничено!!!

2 сезон

iTunes

1 сезон

1

2 сезон

2 сезон

iTunes

1 сезон

RePack

30

Новинка

ВАЖНО

ИГРА 18+

pack

RePack

MK11
pack

Забери бонус

RePack

jed

!!Акция!!

Alien_Rage

RePack

fifa19

RePack

Assassins Creed: Odyssey

RePack

NEED FOR SPEED™ PAYBACK

4 сезон

9 сезон

Бесстыжие 9 сезон

Все сериалы

все сериалы на PB.wtf

RePack

FAR CRY 5
  

Игра для убийц / Лабиринт / Game of Assassins / The Gauntlet (Мэтт Эскандари / Matt Eskandari) [2013, США, ужасы, боевик, приключения, WEB-DL 720p, Любительский (одноголосый) [Pashaup] pb.wtf

Игра для убийц через торрент pb.wtf

Размер: 2.43 GB | Добавлен: 6 лет назад | Торрент скачан:180 раз
Скачать  

23-11-2014 04:56 Игра для убийц Скачать торрент  

Игра для убийц / Лабиринт / Game of Assassins / The Gauntlet
«В аду... только ваши грехи могут спасти вас...»


  • Год выпуска: 2013
  • Страна: США
  • Жанр: ужасы, боевик, приключения
  • Продолжительность: 01:19:37
  • Перевод: Любительский (одноголосый) [Pashaup] - по переводу [Janetta]

  • Субтитры: русские,английские
  • Режиссер: Мэтт Эскандари / Matt Eskandari
  • В ролях:

    Бай Лин (Kim Lee), Уоррен Коул (David), Дастин Нгуен (Jin-Soo), Джейми Рэй Ньюман (Emma), Джуд Чикколелла (William), Murielle Telio (Anna), Ник Лэйн (Tyler), Джошуа Вилер (Young David), Уилл Блэгроув (Officer Mark), Richie Bruderick (Ron), Куини Таи (Morgan), Джошуа Брунер (Josh)

  • Описание:
    Группа людей заживо погребена под землей. Они голодны, обезвожены и полностью подавлены, оставшись без малейшего проблеска надежды на спасение. Им неизвестно, как они очутились в жутком подземелье и что привело их сюда. Они принимают решение выбраться из дьявольского лабиринта и идут к своей заветной цели, борясь за сохранение своих жизней...
  • Рейтинг:



  • Качество: WEB-DL 720p
  • Формат: :MKV
  • Видео кодек: AVC
  • Аудио кодек: AC3
  • Видео: 1280x544 (2.35:1), 3722 kbps, 23,976 fps, 0,223 bpp
  • Аудио №1: русский / 2.0 / 48 kHz / 192 kbps / 16 bit
  • Аудио №2: английский / 5.1 / 48 kHz / 448 kbps / 16 bit
  • Релиз от: GEKADOL



    Код:

    General
    Unique ID                                : 239790555871739506773860197202680434971 (0xB465FB2F7EB07E06903F4B34B2C1511B)
    Complete name                            : I:\The.Gauntlet.2013.WEB-DL.720p.CINEMANIA.mkv
    Format                                   : Matroska
    Format version                           : Version 4 / Version 2
    File size                                : 2.43 GiB
    Duration                                 : 1h 19mn
    Overall bit rate                         : 4 364 Kbps
    Movie name                               : Release Group CINEMANIA
    Encoded date                             : UTC 2014-11-22 14:16:05
    Writing application                      : mkvmerge v7.3.0 ('Nouages') 64bit built on Oct 22 2014 18:53:34
    Writing library                          : libebml v1.3.0 + libmatroska v1.4.1

    Video
    ID                                       : 1
    Format                                   : AVC
    Format/Info                              : Advanced Video Codec
    Format profile                           : High@L3.1
    Format settings, CABAC                   : Yes
    Format settings, ReFrames                : 4 frames
    Codec ID                                 : V_MPEG4/ISO/AVC
    Duration                                 : 1h 19mn
    Bit rate                                 : 3 722 Kbps
    Width                                    : 1 280 pixels
    Height                                   : 544 pixels
    Display aspect ratio                     : 2.35:1
    Frame rate                               : 23.976 fps
    Color space                              : YUV
    Chroma subsampling                       : 4:2:0
    Bit depth                                : 8 bits
    Scan type                                : Progressive
    Bits/(Pixel*Frame)                       : 0.223
    Stream size                              : 2.02 GiB (83%)
    Title                                    : Release Group CINEMANIA
    Writing library                          : x264 core 130 r2273 b3065e6
    Encoding settings                        : cabac=1 / ref=1 / deblock=1:0:0 / analyse=0x3:0x113 / me=hex / subme=2 / psy=1 / psy_rd=1.00:0.00 / mixed_ref=0 / me_range=16 / chroma_me=1 / trellis=0 / 8x8dct=1 / cqm=0 / deadzone=21,11 / fast_pskip=1 / chroma_qp_offset=0 / threads=6 / lookahead_threads=2 / sliced_threads=0 / nr=0 / decimate=1 / interlaced=0 / bluray_compat=0 / constrained_intra=0 / bframes=3 / b_pyramid=2 / b_adapt=1 / b_bias=0 / direct=1 / weightb=1 / open_gop=0 / weightp=1 / keyint=250 / keyint_min=23 / scenecut=40 / intra_refresh=0 / rc_lookahead=10 / rc=2pass / mbtree=1 / bitrate=3722 / ratetol=1.0 / qcomp=0.60 / qpmin=0 / qpmax=69 / qpstep=4 / cplxblur=20.0 / qblur=0.5 / ip_ratio=1.40 / aq=1:1.00
    Default                                  : Yes
    Forced                                   : No

    Audio #1
    ID                                       : 2
    Format                                   : AC-3
    Format/Info                              : Audio Coding 3
    Mode extension                           : CM (complete main)
    Codec ID                                 : A_AC3
    Duration                                 : 1h 19mn
    Bit rate mode                            : Constant
    Bit rate                                 : 192 Kbps
    Channel(s)                               : 2 channels
    Channel positions                        : Front: L R
    Sampling rate                            : 48.0 KHz
    Bit depth                                : 16 bits
    Compression mode                         : Lossy
    Stream size                              : 109 MiB (4%)
    Title                                    : PashaUp
    Language                                 : Russian
    Default                                  : Yes
    Forced                                   : Yes

    Audio #2
    ID                                       : 3
    Format                                   : AC-3
    Format/Info                              : Audio Coding 3
    Mode extension                           : CM (complete main)
    Codec ID                                 : A_AC3
    Duration                                 : 1h 19mn
    Bit rate mode                            : Constant
    Bit rate                                 : 448 Kbps
    Channel(s)                               : 6 channels
    Channel positions                        : Front: L C R, Side: L R, LFE
    Sampling rate                            : 48.0 KHz
    Bit depth                                : 16 bits
    Compression mode                         : Lossy
    Stream size                              : 255 MiB (10%)
    Language                                 : English
    Default                                  : No
    Forced                                   : No

    Text #1
    ID                                       : 4
    Format                                   : UTF-8
    Codec ID                                 : S_TEXT/UTF8
    Codec ID/Info                            : UTF-8 Plain Text
    Language                                 : Russian
    Default                                  : Yes
    Forced                                   : Yes

    Text #2
    ID                                       : 5
    Format                                   : UTF-8
    Codec ID                                 : S_TEXT/UTF8
    Codec ID/Info                            : UTF-8 Plain Text
    Language                                 : English
    Default                                  : No
    Forced                                   : No


    Скриншоты:



    pb.wtf



  • Скачать Игра для убийц через торрент http://i66.fastpic.ru/big/2014/1123/3c/7d40ffaaf7469dc7690f529ad9202c3c.jpg Скачать фильм Игра для убийц через торрент бесплантно в хорошем качестве Описание: Группа людей заживо погребена под землей. Они голодны, обезвожены и полностью подавлены, оставшись без малейшего проблеска ... 9.6 10 9
    Торрент: Зарегистрирован [2014-11-23 04:56] · скачан: 180 раз
    Статус: T временная
    Размер: 2.43 GB
    Как cкачать? Как скачать Игра для убийц через торрент | qTorrent

    28-11-2019 20:33  

    Отключить всю рекламу на сайте

    23-11-2014 05:55 Игра для убийц Скачать торрент  

    Сейчас за ценим winkpb.wtf



    23-11-2014 08:15 Игра для убийц Скачать торрент  

    маратыч86 писал(а):

    Сейчас за ценим wink

    как фильм то ?? pb.wtf



      Дорогой пользователь! Огромная просьба, поблагодарите релизера, оцените раздачу и оставьте свои комментарий, если Вы скачали Игра для убийц через торрент бесплатно! Внесите свою лепту в развитие PiratBit!
      Комментировать посты могут только пользователи прошедшие не сложную регистрацию
      Показать сообщения:    

      Игра для убийц через торрент
      Скачать бесплатно Игра для убийц
      Игра для убийц скачать торрент
      Игра для убийц смотреть онлайн
      Cкачать фильм Игра для убийц бесплатно
      Игра для убийц скачать торрент в хорошем качестве
      Игра для убийц смотреть онлайн бесплатно в хорошем качестве


      Вы не можете начинать темы
      Вы не можете отвечать на сообщения
      Вы не можете редактировать свои сообщения
      Вы не можете удалять свои сообщения
      Вы не можете голосовать в опросах
      Вы не можете прикреплять файлы к сообщениям
      Вы можете скачивать файлы