1 сезон

3 сезон

iTunes

1

iTunes

MVO

iTunes

13

1 сезон

RePack

30

Deluxe

pack

Лицензия

ВАЖНО

ИГРА 18+

pack

RePack

MK11

RePack

jed

RePack

fifa19

RePack

RDR2

RePack

NEED FOR SPEED™ PAYBACK

4 сезон

9 сезон

Бесстыжие 9 сезон

Все сериалы

все сериалы на PB.wtf

RePack

FAR CRY 5

Anonymous, доброй ночи, мы катастрофически не успеваем собрать деньги на оплату серверов, помогите нам пожалуйста 5,10,15р., для нас важна любая помощь . В качестве благодарности мы отключим Вам всю рекламу на сайте (укажите свой ник в строку Ваше имя)!

×
  
Magnet ссылка

Снова 16 / 16 ans ou presque (Тристан Сегела / Tristan Séguéla) [2013, комедия, семейный, DVD5] R5 pb.wtf

Снова 16 через торрент pb.wtf

Размер: 3.53 GB | Добавлен: 6 лет 8 мес. назад | Торрент скачан:36 раз
Скачать  

23-11-2014 08:58 Снова 16 Скачать торрент  


Снова 16 / 16 ans ou presque
«Играй гормон!»
Страна: Франция
Студия: Canal+ [fr], Ciné, La Banque Postale Image 6, Les films du 24, Soficinéma 9, TF1, TF1 Droits Audiovisuels, TF1 Films Production
Жанр: комедия, семейный
Год выпуска: 2013
Мировая премьера: 22 сентября 2013
Российская премьера: 20 февраля 2014
Дата выхода DVD: 5 августа 2014
Продолжительность: 01:23:44
Перевод: Профессиональный (дублированный) [Лицензия]
Cубтитры: нет
Оригинальная аудиодорожка: нет
Режиссер: Тристан Сегела / Tristan Séguéla
В ролях: Лоран Лафитт, Кристоф Малавуа, Жюдит Эль Зейн, Джонатан Коэн, Франсуа Роллин, Анн Кановас, Пабло Поли, Александр Принц
Описание: Арно Мюстье — само олицетворение успеха. Юрист и красноречивый философ, который своими словами умеет завести слушателей в тупик. Но в один прекрасный момент все начинает рушиться. Пара прыщей, странное поведение — и Арно получает диагноз — С. П. — синдром подростка. Это одно из редчайших расстройств, которым страдают взрослые мужчины, вновь проходя через кризис шестнадцати лет. Арно открывает для себя целый мир подростков, удивляя своим поведением всех окружающих. И первым, кто видит героя в новом «амплуа», оказывается его собственный брат-подросток
Бонусы: нет

Релиз группы:
Качество: DVD5 R5
Формат: DVD-Video
Видео кодек: MPEG2
Аудио кодек: AC3
Видео: PAL 16:9 (720x576(0.502)) MPEG Video, 25,000 кадр/сек, 5202 Кбит/сек
Аудио: Russian (Dolby AC3, 6 ch) 448 Кбит/сек, 48,0 КГц



Title: Snova.16.2013.DVD5
Size: 3.53 Gb ( 3 696 466,00 KBytes ) - DVD-5
Enabled regions: 1, 2, 3, 4, 5, 6, 7, 8

VTS_01 :
Play Length: 00:00:19
Video: PAL 16:9 (720x576) VBR, Auto Pan&Scan, Auto Letterboxed
Audio:
Not specified (Dolby AC3, 2 ch)

VTS_02 :
Play Length: 01:23:44
Video: PAL 16:9 (720x576) VBR, Auto Letterboxed
Audio:
Not specified (Dolby AC3, 6 ch)

* Menus Information *

VIDEO_TS Menu
Video:
PAL 16:9 (720x576) VBR
Auto Pan&Scan, Auto Letterboxed
English Language Unit :
Title Menu

VTS_01 Menu
Video:
PAL 16:9 (720x576) VBR
Auto Pan&Scan, Auto Letterboxed
Audio:
Not specified (Dolby AC3, 6 ch)
English Language Unit :
Root Menu

VTS_02 Menu
Video:
PAL 4:3 (720x576) VBR
English Language Unit :
Root Menu
Общее
Полное имя : F:\Новинки 2014\Snova.16.2013.DVD5\VIDEO_TS\VTS_02_2.VOB
Формат : MPEG-PS
Размер файла : 1024 Мбайт
Продолжительность : 24 м.
Режим общего битрейта : Переменный
Общий поток : 5765 Кбит/сек

Видео
Идентификатор : 224 (0xE0)
Формат : MPEG Video
Версия формата : Version 2
Профиль формата : Main@Main
Параметр BVOP формата : Да
Параметр матрицы формата : Выборочная
Параметр GOP формата : Variable
Format_Settings_PictureStructure : Frame
Продолжительность : 24 м.
Вид битрейта : Переменный
Битрейт : 5202 Кбит/сек
Максимальный битрейт : 9000 Кбит/сек
Ширина : 720 пикселей
Высота : 576 пикселей
Соотношение сторон : 16:9
Частота кадров : 25,000 кадров/сек
Стандарт вещания : PAL
Цветовое пространство : YUV
Субдискретизация насыщенности : 4:2:0
Битовая глубина : 8 бит
Тип развёртки : Чересстрочная
Порядок развёртки : Верхнее поле первое
Метод сжатия : С потерями
Бит/(Пиксели*Кадры) : 0.502
Временной код первого кадра : 00:25:30:15
Оригинал временного кода : Group of pictures header
Размер потока : 924 Мбайт (90%)

Аудио
Идентификатор : 189 (0xBD)-128 (0x80)
Формат : AC-3
Формат/Информация : Audio Coding 3
Расширение режима : CM (complete main)
Параметр Endianness формата : Big
Режим смешивания : DVD-Video
Продолжительность : 24 м.
Вид битрейта : Постоянный
Битрейт : 448 Кбит/сек
Каналы : 6 каналов
Расположение каналов : Front: L C R, Side: L R, LFE
Частота : 48,0 КГц
Битовая глубина : 16 бит
Метод сжатия : С потерями
Задержка видео : -392 мс.
Размер потока : 79,6 Мбайт (8%)










pb.wtf



Скачать Снова 16 через торрент http://i64.fastpic.ru/big/2014/1122/f1/c603294c117aa5f54edf803c6484ccf1.jpg Скачать фильм Снова 16 через торрент бесплантно в хорошем качестве Описание: Арно Мюстье — само олицетворение успеха. Юрист и красноречивый философ, который своими словами умеет завести слушателей в тупик. ... 10 10 2
Торрент: Зарегистрирован [2014-11-23 08:58] · скачан: 36 раз
Статус: √ проверено
Размер: 3.53 GB
Как cкачать? Как скачать Снова 16 через торрент | UTorrent

28-11-2019 20:33  

Отключить всю рекламу на сайте

    Дорогой пользователь! Огромная просьба, поблагодарите релизера, оцените раздачу и оставьте свои комментарий, если Вы скачали Снова 16 через торрент бесплатно! Внесите свою лепту в развитие PiratBit!
    Комментировать посты могут только пользователи прошедшие не сложную регистрацию
    Показать сообщения:    

    Снова 16 через торрент
    Скачать бесплатно Снова 16
    Снова 16 скачать торрент
    Снова 16 смотреть онлайн
    Cкачать фильм Снова 16 бесплатно
    Снова 16 скачать торрент в хорошем качестве
    Снова 16 смотреть онлайн бесплатно в хорошем качестве


    Вы не можете начинать темы
    Вы не можете отвечать на сообщения
    Вы не можете редактировать свои сообщения
    Вы не можете удалять свои сообщения
    Вы не можете голосовать в опросах
    Вы не можете прикреплять файлы к сообщениям
    Вы можете скачивать файлы