2 сезон

iTunes

MVO

1

2 сезон

iTunes

iTunes

1 сезон

RePack

30

Ultimate

ВАЖНО

ИГРА 18+

pack

RePack

MK11
pack

Легкие деньги

RePack

jed

RePack

fifa19

RePack

RDR2

RePack

NEED FOR SPEED™ PAYBACK

4 сезон

9 сезон

Бесстыжие 9 сезон

Все сериалы

все сериалы на PB.wtf

RePack

FAR CRY 5

Anonymous, добрый день, мы не успеваем собрать деньги на оплату серверов за декабрь и январь, помогите нам пожалуйста в это трудное время. В качестве благодарности мы отключим Вам всю рекламу на сайте (укажите свой ник в строку Ваше имя)!

×
  
Magnet ссылка

Хулиганы 3 / Green Street 3: Never Back Down (Джеймс Нанн) [2013, Великобритания, Боевик, HDRip,Профессиональный многоголосый [Официальный звук] pb.wtf

Хулиганы 3 через торрент pb.wtf

Размер: 1.37 GB | Добавлен: 6 лет 1 мес. назад | Торрент скачан:948 раз
Скачать  

23-11-2014 10:06 Хулиганы 3 Скачать торрент  

Хулиганы 3 / Green Street 3: Never Back Down Год выпуска: 2013
Выпущено:: Великобритания, Tea Shop & Film Company
Жанр: Боевик
Длительность: 01:30:47
Перевод: Профессиональный многоголосый [Официальный звук]

Режиссер:Джеймс Нанн

В ролях:
Скотт Эдкинс, Кейси Барнфилд, Ли Николас Харрис, Марк Уингетт, Джои Анса, Райан Олива, Джек Дулан, Алистер МакНаб, Мэттью С. Мартино

Описание:
В юности Дэнни входил в состав фанатской группировки «Элита Зелёной Улицы», члены которой привыкли любые вопросы решать с помощью кулаков. Повзрослев, Дэнни решил, что футбольное насилие больше его не привлекает, начал профессионально заниматься боевыми искусствами, и вскоре уже руководил собственным бойцовским клубом. Его младший брат Джоуи, которого он сам тренировал, пошел по его стопам и тоже присоединился к «Элите Зелёной Улицы». И однажды это привело Джоуи к гибели в одной из драк с фанатами другой команды...

Качество: HDRip
Формат: AVI
Видео кодек: XviD
Аудио кодек: AC3
Видео: 720x304, 1895 kbps, 24,000 fps, 0.361
Аудио#1: русский / 2.0 / 48 kHz / 192 kbps / 16 bit
Субтитры: Отсутствуют



Рейтинг:







Общее
Полное имя : D:\uTorrent\Hyligany.3.2013.P.HDRip.avi
Формат : AVI
Формат/Информация : Audio Video Interleave
Размер файла : 1,37 Гбайт
Продолжительность : 1 ч. 33 м.
Общий поток : 2097 Кбит/сек
Программа кодирования : VirtualDubMod 1.5.10.2 (build 2540/release)
Библиотека кодирования : VirtualDubMod build 2540/release

Видео
Идентификатор : 0
Формат : MPEG-4 Visual
Профиль формата : Advanced Simple@L5
Параметр BVOP формата : 2
Параметр QPel формата : Нет
Параметр GMC формата : Без точки перехода
Параметр матрицы формата : Default (MPEG)
Идентификатор кодека : XVID
Идентификатор кодека/Подсказка : XviD
Продолжительность : 1 ч. 33 м.
Битрейт : 1895 Кбит/сек
Ширина : 720 пикселей
Высота : 304 пикселя
Соотношение сторон : 2,35:1
Частота кадров : 24,000 кадра/сек
Цветовое пространство : YUV
Субдискретизация насыщенности : 4:2:0
Битовая глубина : 8 бит
Тип развёртки : Прогрессивная
Метод сжатия : С потерями
Бит/(Пиксели*Кадры) : 0.361
Размер потока : 1,23 Гбайт (90%)
Библиотека кодирования : XviD 1.2.1 (UTC 2008-12-04)

Аудио
Идентификатор : 1
Формат : AC-3
Формат/Информация : Audio Coding 3
Расширение режима : CM (complete main)
Параметр Endianness формата : Big
Идентификатор кодека : 2000
Продолжительность : 1 ч. 33 м.
Вид битрейта : Постоянный
Битрейт : 192 Кбит/сек
Каналы : 2 канала
Расположение каналов : Front: L R
Частота : 48,0 КГц
Битовая глубина : 16 бит
Метод сжатия : С потерями
Размер потока : 128 Мбайт (9%)
Выравнивание : Разделение по промежуткам
Продолжительность промежутка : 42 мс. (1,00 видеокадр)
Время предзагрузки промежутка : 500 мс.

Приятного просмотра! Не забывайте говорить спасибо!pb.wtf



Скачать Хулиганы 3 через торрент http://pic.kartinco.top/images/6/idvgp.jpg Скачать фильм Хулиганы 3 через торрент бесплантно в хорошем качестве Описание: В юности Дэнни входил в состав фанатской группировки «Элита Зелёной Улицы», члены которой привыкли любые вопросы решать с помощью ... 9.9 10 33
Торрент: Зарегистрирован [2014-11-23 10:06] · скачан: 948 раз
Статус: √ проверено
Размер: 1.37 GB
Как cкачать? Как скачать Хулиганы 3 через торрент | UTorrent

% Раздел Тема Автор DL S | L
Фильмы [HD 720p, 1080p] (Хороший звук DUB, MVO) [ 4.4 GB ] Хулиганы 3 / Green Street 3: Never Back Down [2013 BDRip 720p многоголосый [online movies]] Anonymous Скачать
1 | 0
T Фильмы 2013 (Звук TS, Cam, VO, DVO) [ 2.05 GB ] Хулиганы 3 / Green Street 3: Never Back Down [2013 BDRip Любительский одноголосый] coc900 Скачать
1 | 0
Фильмы без перевода [ 4.36 GB ] Хулиганы 3 / Green Street 3: Never Back Down [2013 BDRip 720p Оригинал] smaster Скачать
1 | 0
Фильмы без перевода [ 6.55 GB ] Хулиганы 3 / Green Street 3: Never Back Down [2013 BDRip 1080p Оригинал] smaster Скачать
1 | 0


Последний раз редактировалось: _Fenixx_ни мужик ни баба (2014-11-23 13:56), всего редактировалось 5 раз(а)

28-11-2019 20:33  

Отключить всю рекламу на сайте

23-11-2014 10:13 Хулиганы 3 Скачать торрент  

не смотрел, надо будет глянутьpb.wtf



23-11-2014 10:40 Хулиганы 3 Скачать торрент  

Да фильм 2013, я уже смотрелpb.wtf



23-11-2014 11:03 Хулиганы 3 Скачать торрент  

как фильм то? по трейлеру не очень....pb.wtf



23-11-2014 11:10 Хулиганы 3 Скачать торрент  

Lakys писал(а):

как фильм то? по трейлеру не очень....

Мне очень нравится линейка этих фильмов! Не знаю как остальным! Как говорится на вкус и цвет товарищей нет!pb.wtf



23-11-2014 11:23 Хулиганы 3 Скачать торрент  

Ты пост то читай хоть! Автор переделай на 2013 год в главной теме!pb.wtf



23-11-2014 11:28 Хулиганы 3 Скачать торрент  

Всё равно лучше,чем первая часть нету )pb.wtf



23-11-2014 11:37 Хулиганы 3 Скачать торрент  

BUDDAA писал(а):

Ты пост то читай хоть! Автор переделай на 2013 год в главной теме!

Спасибо сразу не заметил!pb.wtf



23-11-2014 13:12 Хулиганы 3 Скачать торрент  

Тех. данные Видео несовпадают с MediaInfo. Исправляем.pb.wtf



25-11-2014 05:13 Хулиганы 3 Скачать торрент  

Первая часть была класной.
Вторая более менее...
Третья фуфло полное....pb.wtf



02-11-2015 10:07 Хулиганы 3 Скачать торрент  

Не смотрел первые две, но это даже не мешает, история то новая по ходу. Фильм понравился, просто не нужно было его называть так. Драки крутые, закос под Рокки и вообще фильмы 80-90ых. Спасибо раздающему.pb.wtf



    Дорогой пользователь! Огромная просьба, поблагодарите релизера, оцените раздачу и оставьте свои комментарий, если Вы скачали Хулиганы 3 через торрент бесплатно! Внесите свою лепту в развитие PiratBit!
    Комментировать посты могут только пользователи прошедшие не сложную регистрацию
    Показать сообщения:    

    Хулиганы 3 через торрент
    Скачать бесплатно Хулиганы 3
    Хулиганы 3 скачать торрент
    Хулиганы 3 смотреть онлайн
    Cкачать фильм Хулиганы 3 бесплатно
    Хулиганы 3 скачать торрент в хорошем качестве
    Хулиганы 3 смотреть онлайн бесплатно в хорошем качестве


    Вы не можете начинать темы
    Вы не можете отвечать на сообщения
    Вы не можете редактировать свои сообщения
    Вы не можете удалять свои сообщения
    Вы не можете голосовать в опросах
    Вы не можете прикреплять файлы к сообщениям
    Вы можете скачивать файлы