Всегда рабочее зеркало без VPN и Proxy просто перед .vidak.icu напиши любое слово или цифру, Пример http://ghum.vidak.icu

MVO

2 сезон

2 сезон

1

1 сезон

iTunes

2 сезон

13

1 сезон

Deluxe

pack

Рекомендуем

Пиратка

30

ВАЖНО

RePack

MK11

RePack

jed

RePack

fifa19

RePack

RDR2

RePack

NEED FOR SPEED™ PAYBACK

Кинопоиск HD

6 сезон

 Острые козырьки 6 сезон

Все сериалы

все сериалы на PB.wtf

RePack

FAR CRY 5

Anonymous, нам критически не хватает 5601 руб. на оплату серверов и переферии за Апрель, помоги нам пожалуйста, вся надежда только на тебя. В благодарность мы отключим тебе всю рекламу на сайте!

×
  
Magnet ссылка

Ровер / The Rover (Дэвид Мишо / David Michôd) [2014, драма, криминал, BDRip 1080p, MVO, Лицензия] pb.wtf

Ровер через торрент pb.wtf

Размер: 11 GB | Добавлен: 7 лет 5 мес. назад | Торрент скачан:82 раза
Смотреть онлайн Ровер | Скачать    Ребята, помогите собрать деньги на оплату серверов!!!

23-11-2014 14:50 Ровер Скачать торрент  

Ровер / The Rover
«Бойся человека, которому нечего терять»



Год выпуска: 2014
Страна: Австралия, США
Жанр: драма, криминал
Продолжительность: 01:42:53
Перевод: Профессиональный (многоголосый) [Лицензия]
Субтитры: Русские (Полные)



Режиссер:
  • Дэвид Мишо / David Michôd
В ролях:
  • Гай Пирс, Роберт Паттинсон, Чан Кьень, Тек Конг Лим, Таванда Маниймо, Скут МакНэйри, Дэвид Филд, Скотт Перри, Ричард Грин, Бен Армер, Этан Хэнслоу, Джиллиан Джонс

Описание: Через 10 лет после глобального экономического коллапса закаленный герой-одиночка преследует банду, угнавшую его автомобиль.



Качество: BDRip 1080p
Формат: MKV
Видео кодек: AVC
Аудио кодек: AC3 / DTS
Видео: 1920x800 (2.40:1), 23,976 fps, 13.0 Mbps, 0.354 bpp
Аудио №1: русский, AC3, 48 kHz, 5.1 ch, 448 kbps
Аудио №2: английский, DTS, 48 kHz, 5.1 ch, 1510 kbps


Код:

Общее
Уникальный идентификатор                 : 175721251482740913297295870567711666347 (0x8432AE982E0E4050B856132BD79670AB)
Полное имя                               : E:\Ровер (2014) BDRip 1080p.mkv
Формат                                   : Matroska
Версия формата                           : Version 4 / Version 2
Размер файла                             : 11,0 Гбайт
Продолжительность                        : 1 ч. 42 м.
Общий поток                              : 15,3 Мбит/сек
Дата кодирования                         : UTC 2014-11-23 22:16:12
Программа кодирования                    : mkvmerge v6.9.1 ('Blue Panther') 64bit built on Apr 18 2014 18:23:38
Библиотека кодирования                   : libebml v1.3.0 + libmatroska v1.4.1
Attachements                             : cover.jpg

Видео
Идентификатор                            : 1
Формат                                   : AVC
Формат/Информация                        : Advanced Video Codec
Профиль формата                          : High@L4.1
Параметр CABAC формата                   : Да
Параметр ReFrames формата                : 5 кадров
Идентификатор кодека                     : V_MPEG4/ISO/AVC
Продолжительность                        : 1 ч. 42 м.
Битрейт                                  : 13,0 Мбит/сек
Ширина                                   : 1920 пикселей
Высота                                   : 800 пикселей
Соотношение сторон                       : 2,40:1
Режим частоты кадров                     : Постоянный
Частота кадров                           : 23,976 кадра/сек
Цветовое пространство                    : YUV
Субдискретизация насыщенности            : 4:2:0
Битовая глубина                          : 8 бит
Тип развёртки                            : Прогрессивная
Бит/(Пиксели*Кадры)                      : 0.354
Размер потока                            : 9,38 Гбайт (85%)
Заголовок                                : HDAccess
Библиотека кодирования                   : x264 core 142 r2453kMod ea0ca51
Настройки программы                      : cabac=1 / ref=5 / deblock=1:-3:-3 / analyse=0x3:0x133 / me=umh / subme=10 / psy=1 / fade_compensate=0.00 / psy_rd=1.01:0.00 / mixed_ref=1 / me_range=24 / chroma_me=1 / trellis=2 / 8x8dct=1 / cqm=0 / deadzone=21,11 / fast_pskip=0 / chroma_qp_offset=-2 / threads=24 / lookahead_threads=6 / sliced_threads=0 / nr=0 / decimate=0 / interlaced=0 / bluray_compat=0 / constrained_intra=0 / fgo=0 / bframes=10 / b_pyramid=2 / b_adapt=2 / b_bias=0 / direct=3 / weightb=1 / open_gop=0 / weightp=2 / keyint=250 / keyint_min=23 / scenecut=40 / intra_refresh=0 / rc=crf / mbtree=0 / crf=17.4000 / qcomp=0.75 / qpmin=0 / qpmax=69 / qpstep=4 / ip_ratio=1.30 / pb_ratio=1.20 / aq=1:0.84
Язык                                     : English
Default                                  : Да
Forced                                   : Нет

Аудио #1
Идентификатор                            : 2
Формат                                   : AC-3
Формат/Информация                        : Audio Coding 3
Расширение режима                        : CM (complete main)
Параметр Endianness формата              : Big
Идентификатор кодека                     : A_AC3
Продолжительность                        : 1 ч. 42 м.
Вид битрейта                             : Постоянный
Битрейт                                  : 448 Кбит/сек
Каналы                                   : 6 каналов
Расположение каналов                     : Front: L C R, Side: L R, LFE
Частота                                  : 48,0 КГц
Битовая глубина                          : 16 бит
Метод сжатия                             : С потерями
Размер потока                            : 330 Мбайт (3%)
Язык                                     : Russian
Default                                  : Да
Forced                                   : Нет

Аудио #2
Идентификатор                            : 3
Формат                                   : DTS
Формат/Информация                        : Digital Theater Systems
Режим                                    : 16
Параметр Endianness формата              : Big
Идентификатор кодека                     : A_DTS
Продолжительность                        : 1 ч. 42 м.
Вид битрейта                             : Постоянный
Битрейт                                  : 1509 Кбит/сек
Каналы                                   : 6 каналов
Расположение каналов                     : Front: L C R, Side: L R, LFE
Частота                                  : 48,0 КГц
Битовая глубина                          : 24 бит
Метод сжатия                             : С потерями
Размер потока                            : 1,08 Гбайт (10%)
Язык                                     : English
Default                                  : Нет
Forced                                   : Нет

Текст
Идентификатор                            : 4
Формат                                   : UTF-8
Идентификатор кодека                     : S_TEXT/UTF8
Идентификатор кодека/Информация          : UTF-8 Plain Text
Заголовок                                : Full
Язык                                     : Russian
Default                                  : Нет
Forced                                   : Нет

Меню
00:00:00.000                             : en:00:00:00.000
00:05:54.145                             : en:00:05:54.145
00:12:57.610                             : en:00:12:57.610
00:17:51.404                             : en:00:17:51.404
00:25:28.360                             : en:00:25:28.360
00:30:34.666                             : en:00:30:34.666
00:36:52.293                             : en:00:36:52.293
00:42:18.703                             : en:00:42:18.703
00:47:47.531                             : en:00:47:47.531
00:53:05.349                             : en:00:53:05.349
01:00:39.344                             : en:01:00:39.344
01:08:57.759                             : en:01:08:57.759
01:17:00.991                             : en:01:17:00.991
01:20:07.511                             : en:01:20:07.511
01:24:39.241                             : en:01:24:39.241
01:33:18.134                             : en:01:33:18.134

pb.wtf



Скачать Ровер через торрент https://pic1.kartinco.top/images/81/pguea.jpg Скачать, смотреть онлайн Ровер бесплантно в хорошем качестве Описание: Через 10 лет после глобального экономического коллапса закаленный герой-одиночка преследует банду, угнавшую его ... 9 10 20
Info! Золотая раздача, скачанное не засчитывается.
Торрент: Зарегистрирован [2014-11-23 22:25] · скачан: 82 раз
Статус: √ проверено
Размер: 11 GB
Как cкачать? Как скачать Ровер через торрент | UTorrent

% Раздел Тема Автор DL S | L
Арт-хаус и авторское кино [ 11.28 GB ] Ровер / The Rover [2014 BDRip 1080p DVO [Студия "Paradox"]+AVO [Doctor Joker] Ворон Скачать
1 | 0
Фильмы 2014 [DVDrip, WEB-DLRip, HDrip] [ 1.45 GB ] Ровер / The Rover [2014 HDRip Любительский двухголосый [Студия "Paradox"] Ворон Скачать
1 | 0
Фильмы (DVD фильмы) [ 3.84 GB ] Ровер / The Rover [2014 DVD5] R5 voovaz Скачать
1 | 0
Фильмы [HD 720p, 1080p] (Хороший звук DUB, MVO) [ 5.97 GB ] Ровер / The Rover [2014 BDRip 720p Любительский двухголосый [Студия "Paradox"]+AVO+VO Ворон Скачать
1 | 0
Фильмы 2014 [DVDrip, WEB-DLRip, HDrip] [ 2.04 GB ] Ровер / The Rover [2014 HDRip многоголосый] Official sound кэп Скачать
1 | 0
Фильмы 2014 [DVDrip, WEB-DLRip, HDrip] [ 1.37 GB ] Ровер / The Rover [2014 HDRip многоголосый] Official sound кэп Скачать
1 | 0
Фильмы [HD 720p, 1080p] (Хороший звук DUB, MVO) [ 4.63 GB ] Ровер / The Rover [2014 BDRip 720p многоголосый] кэп Скачать
1 | 0


Последний раз редактировалось: Seedtank (2014-11-23 22:27), всего редактировалось 6 раз(а)

28-11-2019 20:33  

Отключить всю рекламу на сайте

23-11-2014 15:02 Ровер Скачать торрент  

Видеоряд от HDAccess.
Релиз подготовлен специально для piratbit.cc
Вшита обложка.
24.11 торрент обновлён! Улучшен видеоряд! Просьба перекачать торрент-файл.
pb.wtf



24-11-2014 07:41 Ровер Скачать торрент  

Seedtank писал(а):

Видеоряд от HDAccess.
Релиз подготовлен специально для piratbit.cc
Вшита обложка.
24.11 торрент обновлён! Улучшен видеоряд! Просьба перекачать торрент-файл.

Держи друг для полного оформления:
pb.wtf



    Дорогой пользователь! Огромная просьба, поблагодарите релизера, оцените раздачу и оставьте свои комментарий, если Вы скачали Ровер через торрент бесплатно!
    Комментировать посты могут только пользователи прошедшие не сложную регистрацию
    Показать сообщения:    

    Ровер через торрент
    Скачать бесплатно Ровер
    Ровер скачать торрент
    Ровер смотреть онлайн
    Cкачать фильм Ровер бесплатно
    Ровер скачать торрент в хорошем качестве
    Ровер смотреть онлайн бесплатно в хорошем качестве


    Вы не можете начинать темы
    Вы не можете отвечать на сообщения
    Вы не можете редактировать свои сообщения
    Вы не можете удалять свои сообщения
    Вы не можете голосовать в опросах
    Вы не можете прикреплять файлы к сообщениям
    Вы можете скачивать файлы