MEGA SALE -50% FORZA HORIZON 4 ULTIMATE+ВСЕ DLC+ОНЛАЙН всего за 599р. 299 руб. (супер цена). Внимание количество ограничено!!!

iTunes

1+1

iTunes

мы

iTunes

1

iTunes

Чернобыль

iTunes

Ральф против интернета

Лицензия

ПШазам

Лицензия

Игра престолов

Лицензия

30
pack

ВАЖНО

!!Акция!!

Alien_RageХит недели

RePack

Resident Evil 21

ИГРА 18+

pack

RePack

Metro:Exodus

!!Акция!!

Alien_Rage

RePack

fifa19

RePack

Assassins Creed: Odyssey

RePack

NEED FOR SPEED™ PAYBACK

3 сезон

9 сезон

Бесстыжие 9 сезон

Все сериалы

все сериалы на PB.wtf

RePack

FAR CRY 5
Ребята, катастрофически не хватает 7730р. для оплаты серверов за АВГУСТ (всвязи с блокировками трафик упал в 3 раза), 1-2р., выручайте.
  

Хулиганы 2 / Green Street Hooligans 2 (Джесси Джонсон) [2009, США, Боевик, BDRip-AVC ,Профессиональный многоголосый [Лицензия] pb.wtf

Хулиганы 2 через торрент pb.wtf

Размер: 1.95 GB | Добавлен: 4 года 9 мес. назад | Торрент скачан:222 раза
Скачать  

23-11-2014 15:57 Хулиганы 2 Скачать торрент  

Хулиганы 2 / Green Street Hooligans 2

Год выпуска: 2009
Выпущено:: США / Odd Lot Entertainment
Жанр: драма, криминал, спорт
Длительность: 01:34:15
Перевод: Профессиональный (многоголосный) Лицензия

Режиссер: Джесси Джонсон

В ролях:
Росс МакКолл, Грэм МакТавиш, Трева Этьен, Люк Мэсси, Ник Холендер, Теренс Джей О’Брайэн, Тимоти В. Мерфи, Вернон Уэллс, Сюзанн Мэй, Питер О’Мира

Описание: Описание: «Играй! Борись! Выживай!»
После финальной драки в первой части фильма несколько членов Вест Хема и многочисленные бойцы Миллуола оказываются за решёткой. Главные герои (Вест Хем) быстро понимают всю жестокость тюремного мира, постоянно сталкиваясь там со своими врагами из Миллуола, которых намного больше. Футбол в тюрьме не менее популярен чем на воле, и победа или поражения в междусобных матчах дают победителям такие блага как лишнее посещение душа или дополнительный день для посещений, проигравшие же наоборот получают дополнительные наказания. Переполнение в тюрьме приводит всех к вопросу жизни и смерти, и судьба теперь сводит Вест Хем и Миллуол на футбольном поле. Нынешние ставки — самые высокие за всю их жизнь, ведь речь идёт о жизни и смерти. Игра начата…

Качество: BDRip-AVC
Формат: MKV
Видео кодек: AVC
Аудио кодек: AC-3
Видео: 1024 x 552, 2004 kbps, 23,976 fps, 0.148
Аудио#1: русский / 6 ch / 48 kHz / 448 kbps / 16 bit
Аудио#2: Английский / 6 ch / 48 kHz / 448 kbps / 16 bit
Субтитры: Английские

Рейтинг:










Общее
Уникальный идентификатор : 168348648403719580577546155723716462494 (0x7EA6C532C2870C1E037BA147C20E879E)
Полное имя : D:\uTorrent\Hyligani.2.2009.BDRip-AVC.mkv
Формат : Matroska
Версия формата : Version 2
Размер файла : 1,95 Гбайт
Продолжительность : 1 ч. 34 м.
Режим общего битрейта : Переменный
Общий поток : 2959 Кбит/сек

Видео
Идентификатор : 1
Формат : AVC
Формат/Информация : Advanced Video Codec
Профиль формата : Baseline@L3.1
Параметр CABAC формата : Нет
Параметр ReFrames формата : 1 кадр
Параметр GOP формата : M=1, N=12
Идентификатор кодека : V_MPEG4/ISO/AVC
Продолжительность : 1 ч. 34 м.
Вид битрейта : Переменный
Битрейт : 2004 Кбит/сек
Максимальный битрейт : 3090 Кбит/сек
Ширина : 1024 пикселя
Высота : 552 пикселя
Соотношение сторон : 1,85:1
Режим частоты кадров : Постоянный
Частота кадров : 23,976 кадра/сек
Частота кадров в оригинале : 24,000 кадра/сек
Цветовое пространство : YUV
Субдискретизация насыщенности : 4:2:0
Битовая глубина : 8 бит
Тип развёртки : Прогрессивная
Бит/(Пиксели*Кадры) : 0.148
Размер потока : 1,32 Гбайт (68%)
Язык : English
Default : Да
Forced : Нет

Аудио #1
Идентификатор : 2
Формат : AC-3
Формат/Информация : Audio Coding 3
Расширение режима : CM (complete main)
Параметр Endianness формата : Big
Идентификатор кодека : A_AC3
Продолжительность : 1 ч. 34 м.
Вид битрейта : Постоянный
Битрейт : 448 Кбит/сек
Каналы : 6 каналов
Расположение каналов : Front: L C R, Side: L R, LFE
Частота : 48,0 КГц
Битовая глубина : 16 бит
Метод сжатия : С потерями
Размер потока : 302 Мбайт (15%)
Язык : Russian
Default : Да
Forced : Нет

Аудио #2
Идентификатор : 4
Формат : AC-3
Формат/Информация : Audio Coding 3
Расширение режима : CM (complete main)
Параметр Endianness формата : Big
Идентификатор кодека : A_AC3
Продолжительность : 1 ч. 34 м.
Вид битрейта : Постоянный
Битрейт : 448 Кбит/сек
Каналы : 6 каналов
Расположение каналов : Front: L C R, Side: L R, LFE
Частота : 48,0 КГц
Битовая глубина : 16 бит
Метод сжатия : С потерями
Размер потока : 302 Мбайт (15%)
Язык : English
Default : Да
Forced : Нет

Текст
Идентификатор : 3
Формат : UTF-8
Идентификатор кодека : S_TEXT/UTF8
Идентификатор кодека/Информация : UTF-8 Plain Text
Default : Да
Forced : Нет

pb.wtf



Скачать Хулиганы 2 через торрент http://4.firepic.org/4/images/2014-03/27/gpvfhwmf9a1v.jpg Скачать фильм Хулиганы 2 через торрент бесплантно в хорошем качестве Описание: Описание: «Играй! Борись! Выживай!» После финальной драки в первой части фильма несколько членов Вест Хема и многочисленные бойцы ... 10 10 6
Торрент: Зарегистрирован [2014-11-23 15:57] · скачан: 222 раз
Статус: √ проверено
Размер: 1.95 GB
Как cкачать? Как скачать Хулиганы 2 через торрент | qTorrent

% Раздел Тема Автор DL S | L
Фильмы 2009 [ 1.37 GB ] Хулиганы 2 / Green Street Hooligans 2 [2009 HDRip] [ лицензия ] -=BIGBOSS=- Скачать
1 | 0
Фильмы 2009 [ 692 MB ] Хулиганы 2 / Green Street Hooligans 2 [2009г DVDRip] toxa1 Скачать
1 | 0


Последний раз редактировалось: _Fenixx_ни мужик ни баба (2014-11-23 19:21), всего редактировалось 3 раз(а)


>> Регистрируемся здесь <<






Отзывы и комментарии о схеме читаем и пишем здесь: ---> Отзывы и комментарии о схеме

Новые благодарочки в телеграм довольных пользователей:
скриншот   скриншот   скриншот   скриншот   скриншот
    Дорогой пользователь! Огромная просьба, поблагодарите релизера, оцените раздачу и оставьте свои комментарий, если Вы скачали Хулиганы 2 через торрент бесплатно! Внесите свою лепту в развитие PiratBit!
    Комментировать посты могут только пользователи прошедшие не сложную регистрацию
    Показать сообщения:    

    Хулиганы 2 через торрент
    Скачать бесплатно Хулиганы 2
    Хулиганы 2 скачать торрент
    Хулиганы 2 смотреть онлайн
    Cкачать фильм Хулиганы 2 бесплатно
    Хулиганы 2 скачать торрент в хорошем качестве
    Хулиганы 2 смотреть онлайн бесплатно в хорошем качестве


    Вы не можете начинать темы
    Вы не можете отвечать на сообщения
    Вы не можете редактировать свои сообщения
    Вы не можете удалять свои сообщения
    Вы не можете голосовать в опросах
    Вы не можете прикреплять файлы к сообщениям
    Вы можете скачивать файлы