Ссылка на приватное зеркало нашего сайта всего за 1$. Внимание количество ограничено!!!

2 сезон

iTunes

1 сезон

1

iTunes

iTunes

iTunes

1 сезон

RePack

30

ИГРА 18+

pack

ВАЖНО

!!Акция!!

Alien_RageХит недели

RePack

MK11
pack

Забери бонус

RePack

jed

!!Акция!!

Alien_Rage

RePack

fifa19

RePack

Assassins Creed: Odyssey

RePack

NEED FOR SPEED™ PAYBACK

4 сезон

9 сезон

Бесстыжие 9 сезон

Все сериалы

все сериалы на PB.wtf

RePack

FAR CRY 5
  

Если я останусь / If I Stay (Р.Дж. Катлер) [2014, драма, BDRip 1080p] DUB pb.wtf

Если я останусь через торрент pb.wtf

Размер: 7.75 GB | Добавлен: 5 лет 11 мес. назад | Торрент скачан:489 раз
Скачать  

23-11-2014 18:16 Если я останусь Скачать торрент  

Информация о фильме

Русское название: Если я останусь
Оригинальное название: If I Stay
Год выхода: 2014
Жанр: драма
Режиссер: Р.Дж. Катлер
Выпущено: США
Продолжительность: 01:46:40
Перевод: Дублированный
В ролях: Хлоя Грейс Морец, Мирей Инос, Джейми Блэкли, Джошуа Леонард, Лиана Либерато, Стейси Кич, Габриель Роз, Джейкоб Дейвис, Али Милнер, Аиша Хиндс


Сюжет фильма

Мия — талантливая девушка, влюбленная в классическую музыку, в свою виолончель и рокера Адама. Но после автокатастрофы Мия оказывается в коме. Пока тело девушки лежит в больнице, ее душа должна решить, хочет ли она жить дальше или же лучше отправиться в мир иной вслед за своими родными.


Файл

Формат: AVC (библиотека кодирования x.264)
Контейнер (Расширение): MKV
Видео кодек: AVC
Аудио кодек:AC3
Качество: BDRip 1080p (исходник Blu-ray Disc)
Видео: 1920x800, 9328 Кбит/сек, 23,976 кадр/сек, AVC, x264, High@L4.1, 2.40:1, 0.253 Бит/[Пиксели*Кадры]
Аудио 1: AC-3, 448 Кбит/сек, 6 канала(ов), 48,0 КГц - Дублированный / Русский
Аудио 2: AC-3, 640 Кбит/сек, 6 канала(ов), 48,0 КГц - Оригинал / Английский
Субтитры: Русские | Полные, Английские | Полные
Форсированные субтитры: Нет
Чаптеры (Главы): Есть






Сэмпл




Автор Рипа: Сообщество:


скриншот   скриншот   скриншот  

Код:

Format                                   : Matroska
Format version                           : Version 2
File size                                : 7.75 GiB
Duration                                 : 1h 46mn
Overall bit rate                         : 10.4 Mbps
Movie name                               : Если я останусь.(2014).BDRip.1080p.[envy]
Encoded date                             : UTC 2014-11-23 16:56:23
Writing application                      : mkvmerge v5.8.0 ('No Sleep / Pillow') built on Sep  2 2012 15:37:04
Writing library                          : libebml v1.2.3 + libmatroska v1.3.0

Video
ID                                       : 1
Format                                   : AVC
Format/Info                              : Advanced Video Codec
Format profile                           : High@L4.1
Format settings, CABAC                   : Yes
Format settings, ReFrames                : 5 frames
Codec ID                                 : V_MPEG4/ISO/AVC
Duration                                 : 1h 46mn
Bit rate                                 : 9 328 Kbps
Width                                    : 1 920 pixels
Height                                   : 800 pixels
Display aspect ratio                     : 2.40:1
Frame rate mode                          : Constant
Frame rate                               : 23.976 fps
Color space                              : YUV
Chroma subsampling                       : 4:2:0
Bit depth                                : 8 bits
Scan type                                : Progressive
Bits/(Pixel*Frame)                       : 0.253
Stream size                              : 6.78 GiB (88%)
Title                                    : Если я останусь.(2014).BDRip.1080p.[envy]
Writing library                          : x264 core 142 r2491 24e4fed
Encoding settings                        : cabac=1 / ref=5 / deblock=1:-3:-3 / analyse=0x3:0x113 / me=umh / subme=11 / psy=1 / psy_rd=1.00:0.00 / mixed_ref=1 / me_range=32 / chroma_me=1 / trellis=2 / 8x8dct=1 / cqm=0 / deadzone=21,11 / fast_pskip=0 / chroma_qp_offset=-2 / threads=12 / lookahead_threads=1 / sliced_threads=0 / nr=0 / decimate=1 / interlaced=0 / bluray_compat=0 / constrained_intra=0 / bframes=5 / b_pyramid=2 / b_adapt=2 / b_bias=0 / direct=3 / weightb=1 / open_gop=0 / weightp=2 / keyint=240 / keyint_min=23 / scenecut=40 / intra_refresh=0 / rc=2pass / mbtree=0 / bitrate=9328 / ratetol=2.0 / qcomp=0.60 / qpmin=0 / qpmax=69 / qpstep=4 / cplxblur=20.0 / qblur=0.5 / ip_ratio=1.40 / pb_ratio=1.30 / aq=2:0.80
Language                                 : English
Default                                  : Yes
Forced                                   : No

Audio #1
ID                                       : 2
Format                                   : AC-3
Format/Info                              : Audio Coding 3
Mode extension                           : CM (complete main)
Format settings, Endianness              : Big
Codec ID                                 : A_AC3
Duration                                 : 1h 46mn
Bit rate mode                            : Constant
Bit rate                                 : 448 Kbps
Channel(s)                               : 6 channels
Channel positions                        : Front: L C R, Side: L R, LFE
Sampling rate                            : 48.0 KHz
Bit depth                                : 16 bits
Compression mode                         : Lossy
Stream size                              : 342 MiB (4%)
Title                                    : Dub
Language                                 : Russian
Default                                  : Yes
Forced                                   : No

Audio #2
ID                                       : 3
Format                                   : AC-3
Format/Info                              : Audio Coding 3
Mode extension                           : CM (complete main)
Format settings, Endianness              : Big
Codec ID                                 : A_AC3
Duration                                 : 1h 46mn
Bit rate mode                            : Constant
Bit rate                                 : 640 Kbps
Channel(s)                               : 6 channels
Channel positions                        : Front: L C R, Side: L R, LFE
Sampling rate                            : 48.0 KHz
Bit depth                                : 16 bits
Compression mode                         : Lossy
Stream size                              : 488 MiB (6%)
Title                                    : Eng
Language                                 : English
Default                                  : No
Forced                                   : No

Text #1
ID                                       : 4
Format                                   : UTF-8
Codec ID                                 : S_TEXT/UTF8
Codec ID/Info                            : UTF-8 Plain Text
Title                                    : full
Language                                 : Russian
Default                                  : No
Forced                                   : No

Text #2
ID                                       : 5
Format                                   : UTF-8
Codec ID                                 : S_TEXT/UTF8
Codec ID/Info                            : UTF-8 Plain Text
Title                                    : full
Language                                 : English
Default                                  : No
Forced                                   : No

Menu
00:00:00.000                             : en:Chapter 01
00:03:20.366                             : en:Chapter 02
00:07:23.901                             : en:Chapter 03
00:11:31.607                             : en:Chapter 04
00:14:43.716                             : en:Chapter 05
00:19:12.484                             : en:Chapter 06
00:23:19.606                             : en:Chapter 07
00:25:19.267                             : en:Chapter 08
00:27:26.394                             : en:Chapter 09
00:30:45.969                             : en:Chapter 10
00:32:11.596                             : en:Chapter 11
00:34:38.367                             : en:Chapter 12
00:37:21.906                             : en:Chapter 13
00:40:41.188                             : en:Chapter 14
00:44:02.222                             : en:Chapter 15
00:46:58.899                             : en:Chapter 16
00:49:07.819                             : en:Chapter 17
00:52:06.331                             : en:Chapter 18
00:55:43.298                             : en:Chapter 19
00:59:01.579                             : en:Chapter 20
01:00:42.347                             : en:Chapter 21
01:05:39.310                             : en:Chapter 22
01:10:10.039                             : en:Chapter 23
01:13:48.924                             : en:Chapter 24
01:16:18.407                             : en:Chapter 25
01:18:54.730                             : en:Chapter 26
01:24:05.415                             : en:Chapter 27
01:27:44.467                             : en:Chapter 28
01:29:50.176                             : en:Chapter 29
01:33:37.028                             : en:Chapter 30
01:38:16.307                             : en:Chapter 31
01:40:25.269                             : en:Chapter 32



pb.wtf



Скачать Если я останусь через торрент http://6.firepic.org/6/images/2014-11/23/6sg78uf4bl02.png Скачать фильм Если я останусь через торрент бесплантно в хорошем качестве В ролях: Хлоя Грейс Морец, Мирей Инос, Джейми Блэкли, Джошуа Леонард, Лиана Либерато, Стейси Кич, Габриель Роз, Джейкоб Дейвис, Али Милнер, ... 9.7 10 21
Info! Золотая раздача, скачанное не засчитывается.
Торрент: Зарегистрирован [2014-11-23 18:16] · скачан: 489 раз
Статус: √ проверено
Размер: 7.75 GB
Как cкачать? Как скачать Если я останусь через торрент | qTorrent

% Раздел Тема Автор DL S | L
Фильмы [HD 720p, 1080p] (Хороший звук DUB, MVO) [ 10.57 GB ] Если я останусь / If I Stay [2014 BDRip 1080p Dub ] Seedtank Скачать
1 | 0

28-11-2019 20:33  

Отключить всю рекламу на сайте

24-11-2014 10:10 Если я останусь Скачать торрент  

шикарный фильм, одновременно лёгкий и весёлый, но в то-же время, грустный и непредсказуемый. фильм о любви и смерти и насколько ты любишь тех людей которые тебя окружают.pb.wtf



24-11-2014 17:58 Если я останусь Скачать торрент  

что со звуком?pb.wtf



13-12-2014 16:17 Если я останусь Скачать торрент  

Хороший фильм. Стоит посмотреть.pb.wtf



17-12-2014 16:57 Если я останусь Скачать торрент  

Хлоя шикарна, везде! Хоть и маленькая ещё pb.wtf



    Дорогой пользователь! Огромная просьба, поблагодарите релизера, оцените раздачу и оставьте свои комментарий, если Вы скачали Если я останусь через торрент бесплатно! Внесите свою лепту в развитие PiratBit!
    Комментировать посты могут только пользователи прошедшие не сложную регистрацию
    Показать сообщения:    

    Если я останусь через торрент
    Скачать бесплатно Если я останусь
    Если я останусь скачать торрент
    Если я останусь смотреть онлайн
    Cкачать фильм Если я останусь бесплатно
    Если я останусь скачать торрент в хорошем качестве
    Если я останусь смотреть онлайн бесплатно в хорошем качестве


    Вы не можете начинать темы
    Вы не можете отвечать на сообщения
    Вы не можете редактировать свои сообщения
    Вы не можете удалять свои сообщения
    Вы не можете голосовать в опросах
    Вы не можете прикреплять файлы к сообщениям
    Вы можете скачивать файлы