Ссылка на приватное зеркало всего за 1$. Внимание количество ограничено!!!

iTunes

iTunes

iTunes

1

iTunes

iTunes

iTunes

iTunes

iTunes

30
pack

$ от Little Big

ВАЖНО

!!Акция!!

Alien_RageХит недели

RePack

Resident Evil 21

ИГРА 18+

pack

RePack

jed

!!Акция!!

Alien_Rage

RePack

fifa19

RePack

Assassins Creed: Odyssey

RePack

NEED FOR SPEED™ PAYBACK

4 сезон

9 сезон

Бесстыжие 9 сезон

Все сериалы

все сериалы на PB.wtf

RePack

FAR CRY 5
  

Грэйс / Grace(Джефф Чан) [2014, США, Канада, Ужасы, триллер, WEB-DL (720p),Профессиональный многоголосый [Лицензия| iTunes] pb.wtf

Грэйс через торрент pb.wtf

Размер: 2.75 GB | Добавлен: 5 лет 7 мес. назад | Торрент скачан:301 раз
Скачать  

23-11-2014 20:00 Грэйс Скачать торрент  

Грэйс / Grace Год выпуска: 2014
Выпущено:: США, Канада, Automatik Entertainment, Colony Pictures Inc., Oddfellow Entertainment
Жанр: Ужасы, триллер
Длительность: 01:27:32
Перевод: Профессиональный многоголосый [Лицензия]

Режиссер:Джефф Чан

В ролях:
Алексия Фаст, Дэниэл Арнольд, Мадлен Артур, Джошуа Дж. Баллард, Марго Бернер, Наташа Барнетт, Алан Дэйл, Бретт Дир, Алексис Нэп, Джоэл Мур

Описание:
Уникальный фильм ужасов от первого лица главной героини - Грейс, наивной первокурсницы-девственницы, которая пытается противопоставить свою религиозность культуре кампуса, но несмотря на ее благочестивость, зло захватывает ее тело и погружает ее в хаос..

Качество: WEB-DL (720p)
Формат: MKV
Видео кодек: MPEG-4 AVC
Аудио кодек: AC3
Видео: 1280x720, 3639 kbps, 23,976 fps, 0.165
Аудио#1: Русский / 6 ch / 48 kHz / 384 kbps / 16 bit
Аудио#2: Английский / 6 ch / 48 kHz / 384 kbps / 16 bit
Субтитры: Russian, English

Рейтинг:









бщее
Уникальный идентификатор : 223999664060583955049946658110852684426 (0xA884C41C291A41208E07180DD521DA8A)
Полное имя : D:\uTorrent\Grace.2014.P.WEBDL.720p.mkv
Формат : Matroska
Версия формата : Version 4 / Version 2
Размер файла : 2,75 Гбайт
Продолжительность : 1 ч. 27 м.
Общий поток : 4497 Кбит/сек
Дата кодирования : UTC 2014-11-23 02:00:26
Программа кодирования : mkvmerge v7.3.0 ('Nouages') 64bit built on Oct 22 2014 18:53:34
Библиотека кодирования : libebml v1.3.0 + libmatroska v1.4.1
DURATION : 01:27:32.224000000
NUMBER_OF_FRAMES : 164132
NUMBER_OF_BYTES : 252106752
_STATISTICS_WRITING_APP : mkvmerge v7.3.0 ('Nouages') 64bit built on Oct 22 2014 18:53:34
_STATISTICS_WRITING_DATE_UTC : 2014-11-23 02:00:26
_STATISTICS_TAGS : BPS DURATION NUMBER_OF_FRAMES NUMBER_OF_BYTES

Видео
Идентификатор : 1
Формат : AVC
Формат/Информация : Advanced Video Codec
Профиль формата : Baseline@L1.3
Параметр CABAC формата : Нет
Параметр ReFrames формата : 1 кадр
Параметр GOP формата : M=1, N=12
Идентификатор кодека : V_MPEG4/ISO/AVC
Продолжительность : 1 ч. 27 м.
Битрейт : 3639 Кбит/сек
Ширина : 1280 пикселей
Высота : 720 пикселей
Соотношение сторон : 16:9
Режим частоты кадров : Постоянный
Частота кадров : 23,976 кадра/сек
Цветовое пространство : YUV
Субдискретизация насыщенности : 4:2:0
Битовая глубина : 8 бит
Тип развёртки : Прогрессивная
Бит/(Пиксели*Кадры) : 0.165
Размер потока : 2,23 Гбайт (81%)
Язык : English
Default : Да
Forced : Да

Аудио #1
Идентификатор : 2
Формат : AC-3
Формат/Информация : Audio Coding 3
Расширение режима : CM (complete main)
Параметр Endianness формата : Big
Идентификатор кодека : A_AC3
Продолжительность : 1 ч. 27 м.
Вид битрейта : Постоянный
Битрейт : 384 Кбит/сек
Каналы : 6 каналов
Расположение каналов : Front: L C R, Side: L R, LFE
Частота : 48,0 КГц
Битовая глубина : 16 бит
Метод сжатия : С потерями
Размер потока : 240 Мбайт (9%)
Язык : Russian
Default : Да
Forced : Да

Аудио #2
Идентификатор : 3
Формат : AC-3
Формат/Информация : Audio Coding 3
Расширение режима : CM (complete main)
Параметр Endianness формата : Big
Идентификатор кодека : A_AC3
Продолжительность : 1 ч. 27 м.
Вид битрейта : Постоянный
Битрейт : 384 Кбит/сек
Каналы : 6 каналов
Расположение каналов : Front: L C R, Side: L R, LFE
Частота : 48,0 КГц
Битовая глубина : 16 бит
Метод сжатия : С потерями
Размер потока : 240 Мбайт (9%)
Язык : English
Default : Нет
Forced : Нет

Текст #1
Идентификатор : 4
Формат : UTF-8
Идентификатор кодека : S_TEXT/UTF8
Идентификатор кодека/Информация : UTF-8 Plain Text
Язык : Russian
Default : Нет
Forced : Нет

Текст #2
Идентификатор : 5
Формат : UTF-8
Идентификатор кодека : S_TEXT/UTF8
Идентификатор кодека/Информация : UTF-8 Plain Text
Язык : English
Default : Нет
Forced : Нет

Приятного просмотра! Не забывайте говорить спасибо!pb.wtf



Скачать Грэйс через торрент http://pic.kartinco.top/images/8/c8f3o.jpg Скачать фильм Грэйс через торрент бесплантно в хорошем качестве Описание: Уникальный фильм ужасов от первого лица главной героини - Грейс, наивной первокурсницы-девственницы, которая пытается ... 9.2 10 14
Торрент: Зарегистрирован [2014-11-23 20:00] · скачан: 301 раз
Статус: √ проверено
Размер: 2.75 GB
Как cкачать? Как скачать Грэйс через торрент | qTorrent

% Раздел Тема Автор DL S | L
Фильмы 2014 [DVDrip, WEB-DLRip, HDrip] [ 744 MB ] Грэйс / Grace [2014 WEB-DLRip многоголосый [| ] Ворон Скачать
1 | 0
Фильмы 2014 [DVDrip, WEB-DLRip, HDrip] [ 1.37 GB ] Грэйс / Grace [2014 WEB-DLRip многоголосый ] кэп Скачать
1 | 0

28-11-2019 20:33  

Отключить всю рекламу на сайте

    Дорогой пользователь! Огромная просьба, поблагодарите релизера, оцените раздачу и оставьте свои комментарий, если Вы скачали Грэйс через торрент бесплатно! Внесите свою лепту в развитие PiratBit!
    Комментировать посты могут только пользователи прошедшие не сложную регистрацию
    Показать сообщения:    

    Грэйс через торрент
    Скачать бесплатно Грэйс
    Грэйс скачать торрент
    Грэйс смотреть онлайн
    Cкачать фильм Грэйс бесплатно
    Грэйс скачать торрент в хорошем качестве
    Грэйс смотреть онлайн бесплатно в хорошем качестве


    Вы не можете начинать темы
    Вы не можете отвечать на сообщения
    Вы не можете редактировать свои сообщения
    Вы не можете удалять свои сообщения
    Вы не можете голосовать в опросах
    Вы не можете прикреплять файлы к сообщениям
    Вы можете скачивать файлы