Мега распродажа FORZA HORIZON 4 ULTIMATE+ВСЕ DLC+ОНЛАЙН всего за 499р. 349 руб. (супер цена). Внимание количество ограничено!!!

Лицензия

30

iTunes

мы

iTunes

1

1 сезон

Чернобыль

1 сезон

Ральф против интернета

MVO

Покемон. Детектив Пикачу

8 сезон

Игра престолов

iTunes

1+1

ИГРА 18+

pack

ВАЖНО

!!Акция!!

Alien_RageХит недели

RePack

Resident Evil 21
pack

RePack

Metro:Exodus

!!Акция!!

Alien_Rage

RePack

fifa19

RePack

Assassins Creed: Odyssey

RePack

NEED FOR SPEED™ PAYBACK

3 сезон

9 сезон

Бесстыжие 9 сезон

Все сериалы

все сериалы на PB.wtf

RePack

FAR CRY 5
Ребята, катастрофически не хватает 2730р. для оплаты серверов за МАЙ (всвязи с блокировками трафик упал в 3 раза), 1-2р., выручайте.
  

Мальчишник / Bachelor Party (Нил Израэл / Neal Israel) [1984, США, мелодрама, комедия, BDRip] pb.wtf

Мальчишник через торрент pb.wtf

Раздают: 1 [ 0 KB/s ]
Размер: 1.75 GB | Добавлен: 4 года 7 мес. назад | Торрент скачан:98 раз
Скачать  

24-11-2014 07:54 Мальчишник Скачать торрент  

Мальчишник / Bachelor Party

Год выпуска: 1984
Страна: США
Жанр: мелодрама, комедия

Продолжительность: 01:45:29
Перевод: Многоголосый закадровый Авторский (одноголосый)А. Михалёв
Субтитры: Нет
Режиссер: Нил Израэл / Neal Israel
В ролях: Том Хэнкс (Rick Gassko), Тоуни Китаен (Debbie Thompson), Адриан Змед (Jay O'Neill), Джордж Гриззард (Ed Thompson), Барбара Стюарт (Mrs. Thompson), Роберт Прескотт (Cole Whittier), Уильям Теппер (Dr. Stan Gassko), Уэнди Джо Спербер (Dr. Tina Gassko), Бэрри Даймонд (Rudy), Гари Гроссман (Gary), Майкл Дудикофф (Ryko), Брэдфорд Бэнкрофт (Brad Mollen)
Описание:
В последний день перед свадьбой водитель школьного автобуса Рик решает собрать всех друзей на последнюю отвязную вечеринку по принципу «пива и женщин много не бывает». Его невеста Дебби берет ситуацию под свои контроль и возглавляет отряд верных подружек, направляющихся на мальчишник.
Устроив ловушку проституткам, вызванным к Рику, подружки переодеваются и проникают в дом, где проходит вечеринка. Тем временем богатый отец Дебби, недовольный тем, что дочь выходит замуж за неудачника, натравливает на всю компанию бывшего возлюбленного Дебби с целью вернуть дочь любой ценой.
Рик доблестно справится с ситуацией - отлично повеселится, не ударит в грязь лицом перед друзьями и при этом сохранит верность своей невесте.
Рейтинг
kinopoisk.ru: 7.073 (2749)
imdb.com: 6.20 (25 247)
MPAA: R - Лицам до 17 лет обязательно присутствие взрослого
Качество: BDRip
Формат: MKV
Видео кодек: MPEG-4 AVC/H.264
Аудио кодек:AC3
Видео: AVC, 1024x552 (1.855), 1992 kbps, 23,976 fps, 0,147 bpp
Аудио №1: русский / AC3 / 2.0 / 48 kHz / 192 kbps / 16 bit || (Многоголосый закадровый)
Аудио №2: русский / AC3 / 2.0 / 48 kHz / 192 kbps / 16 bit || (Авторский, А. Михалёв)

General
Unique ID : 221119736138430393504748283762534009255 (0xA65A1CB365F6B402857CE279DF8849A7)
Complete name : D:\torrent\Мальчишник.mkv
Format : Matroska
Format version : Version 4 / Version 2
File size : 1.75 GiB
Duration : 1h 45mn
Overall bit rate : 2 377 Kbps
Encoded date : UTC 2014-11-16 06:00:26
Writing application : mkvmerge v7.0.0 ('Where We Going') 32bit built on Jun 9 2014 15:08:34
Writing library : libebml v1.3.0 + libmatroska v1.4.1
DURATION : 01:45:29.344000000
NUMBER_OF_FRAMES : 197792
NUMBER_OF_BYTES : 151904256
_STATISTICS_WRITING_APP : mkvmerge v7.0.0 ('Where We Going') 32bit built on Jun 9 2014 15:08:34
_STATISTICS_WRITING_DATE_UTC : 2014-11-16 06:00:26
_STATISTICS_TAGS : BPS DURATION NUMBER_OF_FRAMES NUMBER_OF_BYTES

Video
ID : 1
Format : AVC
Format/Info : Advanced Video Codec
Format profile : High@L4.0
Format settings, CABAC : Yes
Format settings, ReFrames : 8 frames
Codec ID : V_MPEG4/ISO/AVC
Duration : 1h 45mn
Bit rate : 1 992 Kbps
Width : 1 024 pixels
Height : 552 pixels
Display aspect ratio : 1.855
Frame rate : 23.976 fps
Color space : YUV
Chroma subsampling : 4:2:0
Bit depth : 8 bits
Scan type : Progressive
Bits/(Pixel*Frame) : 0.147
Stream size : 1.43 GiB (82%)
Title : Bachelor Party
Writing library : x264 core 125 r2208 d9d2288
Encoding settings : cabac=1 / ref=8 / deblock=1:-1:-1 / analyse=0x3:0x133 / me=umh / subme=9 / psy=1 / psy_rd=1.00:0.10 / mixed_ref=1 / me_range=32 / chroma_me=1 / trellis=2 / 8x8dct=1 / cqm=0 / deadzone=21,11 / fast_pskip=0 / chroma_qp_offset=-3 / threads=6 / lookahead_threads=1 / sliced_threads=0 / nr=0 / decimate=1 / interlaced=0 / bluray_compat=0 / constrained_intra=0 / bframes=3 / b_pyramid=2 / b_adapt=2 / b_bias=0 / direct=3 / weightb=1 / open_gop=0 / weightp=2 / keyint=250 / keyint_min=25 / scenecut=40 / intra_refresh=0 / rc_lookahead=60 / rc=2pass / mbtree=1 / bitrate=1992 / ratetol=1.0 / qcomp=0.60 / qpmin=0 / qpmax=69 / qpstep=4 / cplxblur=20.0 / qblur=0.5 / ip_ratio=1.40 / aq=1:1.00
Language : English
Default : Yes
Forced : No

Audio #1
ID : 2
Format : AC-3
Format/Info : Audio Coding 3
Mode extension : CM (complete main)
Codec ID : A_AC3
Duration : 1h 45mn
Bit rate mode : Constant
Bit rate : 192 Kbps
Channel(s) : 2 channels
Channel positions : Front: L R
Sampling rate : 48.0 KHz
Bit depth : 16 bits
Compression mode : Lossy
Stream size : 145 MiB (8%)
Title : Многоголосый закадровый
Language : Russian
Default : Yes
Forced : No

Audio #2
ID : 3
Format : AC-3
Format/Info : Audio Coding 3
Mode extension : CM (complete main)
Codec ID : A_AC3
Duration : 1h 45mn
Bit rate mode : Constant
Bit rate : 192 Kbps
Channel(s) : 2 channels
Channel positions : Front: L R
Sampling rate : 48.0 KHz
Bit depth : 16 bits
Compression mode : Lossy
Stream size : 145 MiB (8%)
Title : Авторский, А.Михалёв
Language : Russian
Default : No
Forced : No



pb.wtf



Скачать Мальчишник через торрент http://i4.imageban.ru/out/2014/11/24/29cd72ba0b0841c10f03b70430ca9666.jpg Скачать фильм Мальчишник через торрент бесплантно в хорошем качестве Описание: В последний день перед свадьбой водитель школьного автобуса Рик решает собрать всех друзей на последнюю отвязную вечеринку по ... 10 10 2
Торрент: Зарегистрирован [2014-11-24 07:54] · скачан: 98 раз
Статус: √ проверено
Размер: 1.75 GB
Как cкачать? Как скачать Мальчишник через торрент | qTorrent

% Раздел Тема Автор DL S | L
Фильмы с авторской озвучкой [ 1.47 GB ] Мальчишник / Bachelor Party [1984 HDRip] [AVO] killermax2013 Скачать
1 | 0
Фильмы [HD 720p, 1080p] (Хороший звук DUB, MVO) [ 15.01 GB ] Мальчишник / Bachelor Party [1984 BDRip 1080p] MVO AVO msltel Скачать
1 | 0
Фильмы [HD 720p, 1080p] (Хороший звук DUB, MVO) [ 7.4 GB ] Мальчишник / Bachelor Party [1984 BDRip 720p] MVO AVO msltel Скачать
1 | 0
Фильмы до 2000 г. [ 1.56 GB ] Мальчишник / Bachelor Party [1984 HDTVRip] feldeger Скачать
1 | 0
Фильмы (DVD фильмы) [ 3.99 GB ] Мальчишник в Лас-Вегасе / Bachelor Party Vegas aspace Скачать
1 | 0


>> Регистрируемся здесь <<






Отзывы и комментарии о схеме читаем и пишем здесь: ---> Отзывы и комментарии о схеме

Новые благодарочки в телеграм довольных пользователей:
скриншот   скриншот   скриншот   скриншот   скриншот
    Дорогой пользователь! Огромная просьба, поблагодарите релизера, оцените раздачу и оставьте свои комментарий, если Вы скачали Мальчишник через торрент бесплатно! Внесите свою лепту в развитие PiratBit!
    Комментировать посты могут только пользователи прошедшие не сложную регистрацию
    Показать сообщения:    

    Мальчишник через торрент
    Скачать бесплатно Мальчишник
    Мальчишник скачать торрент
    Мальчишник смотреть онлайн
    Cкачать фильм Мальчишник бесплатно
    Мальчишник скачать торрент в хорошем качестве
    Мальчишник смотреть онлайн бесплатно в хорошем качестве


    Вы не можете начинать темы
    Вы не можете отвечать на сообщения
    Вы не можете редактировать свои сообщения
    Вы не можете удалять свои сообщения
    Вы не можете голосовать в опросах
    Вы не можете прикреплять файлы к сообщениям
    Вы можете скачивать файлы