Ссылка на приватное зеркало нашего сайта всего за 1$. Внимание количество ограничено!!!

2 сезон

iTunes

1 сезон

1

iTunes

iTunes

iTunes

1 сезон

RePack

30

ИГРА 18+

pack

ВАЖНО

!!Акция!!

Alien_RageХит недели

RePack

MK11
pack

Забери бонус

RePack

jed

!!Акция!!

Alien_Rage

RePack

fifa19

RePack

Assassins Creed: Odyssey

RePack

NEED FOR SPEED™ PAYBACK

4 сезон

9 сезон

Бесстыжие 9 сезон

Все сериалы

все сериалы на PB.wtf

RePack

FAR CRY 5
  

Девичий источник / Jungfrukällan (Ингмар Бергман) [1960, драма, криминал, BDRip 1080p] MVO pb.wtf

Девичий источник через торрент pb.wtf

Размер: 8.11 GB | Добавлен: 5 лет 11 мес. назад | Торрент скачан:4 раза
Скачать  

24-11-2014 09:11 Девичий источник Скачать торрент  

Девичий источник / Jungfrukällan

Год выпуска: 1960
Страна: Швеция
Жанр: драма, криминал
Продолжительность: 01:26:35
Перевод: профессиональный многоголосый
Субтитры: русские

Режиссёр: Ингмар Бергман

В ролях: Макс фон Сюдов, Биргитта Вальберг, Гуннель Линдблум, Биргитта Петтерссон, Аксель Дюберг, Тор Иседаль, Аллан Эдвалль, Ове Порат, Аксель Слангус, Гудрун Брост

Описание: Источникам всегда приписывают целебные свойства, и их происхождение часто связывают с чудесами, которым не всегда предшествуют радостные события… И эта скандинавская средневековая легенда тому подтверждение.



Качество: BDRip 1080p Сравнение с исходником
Формат: MKV
Видео кодек: H.264
Аудио кодек: AC3, DTS
Видео: 1448x1080, 12.6 Mbps, 25 кадра/с, 0.322 bpp
Аудио 1: русский, AC3, 192 kbps, 2 ch, 48 kHz [профессиональный многоголосый]
Аудио 2: шведский, DTS, 384 kbps, 2 ch, 48 kHz [оригинал]

Имеются неименованные главы/чаптеры.

Автор рипа msltel
Оскар, 1961 год
Победитель (1):
Лучший фильм на иностранном языке — «Швеция»

Номинации (1):
Лучшая работа художника по костюмам (ч/б фильмы)

Золотой глобус, 1961 год
Победитель (1):
Награда имени Сэмюэля Голдуина

Каннский кинофестиваль, 1960 год
Победитель (1):
Особое упоминание

Номинации (1):
Золотая пальмовая ветвь
Общее
Уникальный идентификатор : 199635452654074154784311047940695115813 (0x963063BE5182038BBE1B80CD05BFC825)
Полное имя : D:VideoDevichij istochnik.1960.BDRip.1080p.mkv
Формат : Matroska
Версия формата : Version 4 / Version 2
Размер файла : 8,11 Гбайт
Продолжительность : 1 ч. 26 м.
Общий поток : 13,4 Мбит/сек
Дата кодирования : UTC 2014-11-24 07:31:14
Программа кодирования : mkvmerge v7.3.0 ('Nouages') 64bit built on Oct 22 2014 18:53:34
Библиотека кодирования : libebml v1.3.0 + libmatroska v1.4.1
_STATISTICS_WRITING_APP : mkvmerge v7.3.0 ('Nouages') 64bit built on Oct 22 2014 18:53:34
_STATISTICS_WRITING_DATE_UTC : 2014-11-24 07:31:14
_STATISTICS_TAGS : BPS DURATION NUMBER_OF_FRAMES NUMBER_OF_BYTES
DURATION : 01:26:35.008000000
NUMBER_OF_FRAMES : 487032
NUMBER_OF_BYTES : 249360464

Видео
Идентификатор : 1
Формат : AVC
Формат/Информация : Advanced Video Codec
Профиль формата : High@L4.1
Параметр CABAC формата : Да
Параметр ReFrames формата : 4 кадра
Идентификатор кодека : V_MPEG4/ISO/AVC
Продолжительность : 1 ч. 26 м.
Битрейт : 12,6 Мбит/сек
Ширина : 1448 пикселей
Высота : 1080 пикселей
Соотношение сторон : 4:3
Режим частоты кадров : Постоянный
Частота кадров : 25,000 кадров/сек
Цветовое пространство : YUV
Субдискретизация насыщенности : 4:2:0
Битовая глубина : 8 бит
Тип развёртки : Прогрессивная
Бит/(Пиксели*Кадры) : 0.322
Размер потока : 7,60 Гбайт (94%)
Заголовок : BDRip -- STarankov
Библиотека кодирования : x264 core 142 r2431 ac76440
Настройки программы : cabac=1 / ref=4 / deblock=1:-1:-1 / analyse=0x3:0x113 / me=umh / subme=10 / psy=1 / psy_rd=1.00:0.15 / mixed_ref=1 / me_range=32 / chroma_me=1 / trellis=2 / 8x8dct=1 / cqm=0 / deadzone=21,11 / fast_pskip=1 / chroma_qp_offset=-3 / threads=6 / lookahead_threads=1 / sliced_threads=0 / nr=0 / decimate=1 / interlaced=0 / bluray_compat=0 / constrained_intra=0 / bframes=8 / b_pyramid=2 / b_adapt=2 / b_bias=0 / direct=3 / weightb=1 / open_gop=0 / weightp=2 / keyint=240 / keyint_min=24 / scenecut=40 / intra_refresh=0 / rc_lookahead=40 / rc=crf / mbtree=0 / crf=17.5 / qcomp=0.60 / qpmin=0 / qpmax=69 / qpstep=4 / vbv_maxrate=50000 / vbv_bufsize=62500 / crf_max=0.0 / nal_hrd=none / filler=0 / ip_ratio=1.40 / pb_ratio=1.30 / aq=1:1.00
Язык : Swedish
Default : Да
Forced : Нет
DURATION : 01:26:35.000000000
NUMBER_OF_FRAMES : 129875
NUMBER_OF_BYTES : 8336692642
_STATISTICS_WRITING_APP : mkvmerge v7.3.0 ('Nouages') 64bit built on Oct 22 2014 18:53:34
_STATISTICS_WRITING_DATE_UTC : 2014-11-24 07:31:14
_STATISTICS_TAGS : BPS DURATION NUMBER_OF_FRAMES NUMBER_OF_BYTES

Аудио #1
Идентификатор : 2
Формат : AC-3
Формат/Информация : Audio Coding 3
Профиль формата : Dolby Digital
Расширение режима : CM (complete main)
Параметр Endianness формата : Big
Идентификатор кодека : A_AC3
Продолжительность : 1 ч. 26 м.
Вид битрейта : Постоянный
Битрейт : 192 Кбит/сек
Каналы : 2 канала
Расположение каналов : Front: L R
Частота : 48,0 КГц
Битовая глубина : 16 бит
Метод сжатия : С потерями
Размер потока : 119 Мбайт (1%)
Заголовок : MVO
Язык : Russian
Default : Да
Forced : Нет

Аудио #2
Идентификатор : 3
Формат : DTS
Формат/Информация : Digital Theater Systems
Режим : 16
Параметр Endianness формата : Big
Идентификатор кодека : A_DTS
Продолжительность : 1 ч. 26 м.
Вид битрейта : Постоянный
Битрейт : 384 Кбит/сек
Каналы : 2 канала
Расположение каналов : Front: L R
Частота : 48,0 КГц
Битовая глубина : 16 бит
Метод сжатия : С потерями
Размер потока : 238 Мбайт (3%)
Заголовок : Original
Язык : Swedish
Default : Нет
Forced : Нет

Текст
Идентификатор : 4
Формат : UTF-8
Идентификатор кодека : S_TEXT/UTF8
Идентификатор кодека/Информация : UTF-8 Plain Text
Заголовок : русский
Язык : Russian
Default : Нет
Forced : Нет

Меню
00:00:00.000 : en:00:00:00.000
00:07:00.319 : en:00:07:00.319
00:15:08.240 : en:00:15:08.240
00:20:17.039 : en:00:20:17.039
00:29:29.400 : en:00:29:29.400
00:36:27.079 : en:00:36:27.079
00:43:25.000 : en:00:43:25.000
00:52:13.639 : en:00:52:13.639
01:00:21.400 : en:01:00:21.400
01:07:23.679 : en:01:07:23.679
01:12:53.359 : en:01:12:53.359
01:19:14.039 : en:01:19:14.039
pb.wtf



Скачать Девичий источник через торрент http://i67.fastpic.ru/big/2014/1123/95/d926e8eb0809871a97da3a5b06b26495.jpg Скачать фильм Девичий источник через торрент бесплантно в хорошем качестве Описание: Источникам всегда приписывают целебные свойства, и их происхождение часто связывают с чудесами, которым не всегда предшествуют ... 10 10 1
Торрент: Зарегистрирован [2014-11-24 09:11] · скачан: 4 раз
Статус: √ проверено
Размер: 8.11 GB
Как cкачать? Как скачать Девичий источник через торрент | qTorrent

% Раздел Тема Автор DL S | L
Фильмы [HD 720p, 1080p] (Хороший звук DUB, MVO) [ 8.91 GB ] Девичий источник / Jungfrukällan [1960 BDRip 1080p by msltel] MVO 2 x AVO msltel Скачать
1 | 0
Фильмы [HD 720p, 1080p] (Хороший звук DUB, MVO) [ 3 GB ] Девичий источник / Jungfrukällan [1960 BDRip 720p by msltel] MVO 2 x AVO msltel Скачать
1 | 0
Фильмы [HD 720p, 1080p] (Хороший звук DUB, MVO) [ 3.47 GB ] Девичий источник / Jungfrukällan [1960 BDRip 720p] MVO msltel Скачать
1 | 0

28-11-2019 20:33  

Отключить всю рекламу на сайте

    Дорогой пользователь! Огромная просьба, поблагодарите релизера, оцените раздачу и оставьте свои комментарий, если Вы скачали Девичий источник через торрент бесплатно! Внесите свою лепту в развитие PiratBit!
    Комментировать посты могут только пользователи прошедшие не сложную регистрацию
    Показать сообщения:    

    Девичий источник через торрент
    Скачать бесплатно Девичий источник
    Девичий источник скачать торрент
    Девичий источник смотреть онлайн
    Cкачать фильм Девичий источник бесплатно
    Девичий источник скачать торрент в хорошем качестве
    Девичий источник смотреть онлайн бесплатно в хорошем качестве


    Вы не можете начинать темы
    Вы не можете отвечать на сообщения
    Вы не можете редактировать свои сообщения
    Вы не можете удалять свои сообщения
    Вы не можете голосовать в опросах
    Вы не можете прикреплять файлы к сообщениям
    Вы можете скачивать файлы