2 сезон

iTunes

MVO

1

2 сезон

iTunes

iTunes

1 сезон

RePack

30

Новинка

ВАЖНО

ИГРА 18+

pack

RePack

MK11
pack

Легкие деньги

RePack

jed

RePack

fifa19

RePack

RDR2

RePack

NEED FOR SPEED™ PAYBACK

4 сезон

9 сезон

Бесстыжие 9 сезон

Все сериалы

все сериалы на PB.wtf

RePack

FAR CRY 5

Anonymous, добрый день, мы не успеваем собрать деньги на оплату серверов за декабрь и январь, помогите нам пожалуйста в это трудное время. В качестве благодарности мы отключим Вам всю рекламу на сайте (укажите свой ник в строку Ваше имя)!

×
  
Magnet ссылка

Лиллехаммер / Lilyhammer / Сезон: 3 / Серии: 1-8 из 8 (Симен Алсвик, Лиза Мари Гамлем) [2014, Драма, криминал, комедия, HDTVRip] MVO (Amedia) + Original + Rus Subs pb.wtf

Лиллехаммер через торрент pb.wtf

Размер: 4.3 GB | Добавлен: 6 лет 1 мес. назад | Торрент скачан:153 раза
Скачать  

24-11-2014 11:13 Лиллехаммер Скачать торрент  

Лиллехаммер / Lilyhammer
Год выпуска: 2014
Страна: США, Норвегия
Жанр: Драма, криминал, комедия
Продолжительность: ~ 00:43:00
Перевод: Профессиональный многоголосый (Amedia)
Субтитры: Русские (Amedia)srt

Режиссер: Симен Алсвик, Лиза Мари Гамлем



В ролях: Стив Ван Зандт, Тронд Фёуса Аурвог, Мариан Саастад Оттесен, Стайнар Саген, Фридтьов Сохейм, Свен Нордин, Эни Кригсволл, Михаель Акхнес-Персон, Карре Хеллум, Томми Карлсен и др.

Описание: Тальяно сдал своего босса федералам, и теперь, в рамках программы по защите свидетелей, он переезжает в Лиллехаммер, небольшой норвежский городок, когда-то приютивший зимние олимпийские игры. Сам Фрэнк называет его Лилихэммером, отсюда и название сериала. Фрэнк мечтает о рае с «чистым воздухом, белым снегом и клевыми телками», вдали от соблазнов Нью-Йорка и от карателей мафии. Реальность, конечно же, оказывается не такой, как мечты.

Качество: HDTVRip
Формат: AVI
Видео кодек: XviD
Аудио кодек: MPEG Audio
Видео: 720x400 (16:9), 25 fps, ~1500 kbps, 0.210 bit/pixel
Аудио#1: 48 kHz, 2 ch, 128 kbps, CBR - Rus Amedia
Аудио#2: 48 kHz, 2 ch, 128 kbps, CBR - Nor
Общее
Полное имя : H:\Лиллехаммер\Lilyhammer (S03)\Lilyhammer.s03e01.XviD.Amedia.[qqss44].avi
Формат : AVI
Формат/Информация : Audio Video Interleave
Размер файла : 551 Мбайт
Продолжительность : 43 м.
Общий поток : 1761 Кбит/сек
Программа кодирования : VirtualDubMod 1.5.10.3 | www.virtualdub-fr.org || (build 2550/release)
Библиотека кодирования : VirtualDubMod build 2550/release

Видео
Идентификатор : 0
Формат : MPEG-4 Visual
Профиль формата : Advanced Simple@L5
Параметр BVOP формата : 2
Параметр QPel формата : Нет
Параметр GMC формата : Без точки перехода
Параметр матрицы формата : Default (MPEG)
Идентификатор кодека : XVID
Идентификатор кодека/Подсказка : XviD
Продолжительность : 43 м.
Битрейт : 1491 Кбит/сек
Ширина : 720 пикселей
Высота : 400 пикселей
Соотношение сторон : 16:9
Частота кадров : 25,000 кадров/сек
Цветовое пространство : YUV
Субдискретизация насыщенности : 4:2:0
Битовая глубина : 8 бит
Тип развёртки : Прогрессивная
Метод сжатия : С потерями
Бит/(Пиксели*Кадры) : 0.207
Размер потока : 466 Мбайт (85%)
Библиотека кодирования : XviD 73

Аудио #1
Идентификатор : 1
Формат : MPEG Audio
Версия формата : Version 1
Профиль формата : Layer 3
Режим : Joint stereo
Расширение режима : MS Stereo
Идентификатор кодека : 55
Идентификатор кодека/Подсказка : MP3
Продолжительность : 43 м.
Вид битрейта : Постоянный
Битрейт : 128 Кбит/сек
Каналы : 2 канала
Частота : 48,0 КГц
Метод сжатия : С потерями
Размер потока : 40,0 Мбайт (7%)
Выравнивание : Соединение по промежуткам
Продолжительность промежутка : 40 мс. (1,00 видеокадр)
Время предзагрузки промежутка : 504 мс.

Аудио #2
Идентификатор : 2
Формат : MPEG Audio
Версия формата : Version 1
Профиль формата : Layer 3
Режим : Joint stereo
Идентификатор кодека : 55
Идентификатор кодека/Подсказка : MP3
Продолжительность : 43 м.
Вид битрейта : Постоянный
Битрейт : 128 Кбит/сек
Каналы : 2 канала
Частота : 48,0 КГц
Метод сжатия : С потерями
Размер потока : 40,0 Мбайт (7%)
Выравнивание : Соединение по промежуткам
Продолжительность промежутка : 40 мс. (1,00 видеокадр)
Время предзагрузки промежутка : 504 мс.


Лиллехаммер скачать торрент


pb.wtf



Скачать Лиллехаммер через торрент http://pic.kartinco.top/images/8/55l15.jpg Скачать фильм Лиллехаммер через торрент бесплантно в хорошем качестве Описание: Тальяно сдал своего босса федералам, и теперь, в рамках программы по защите свидетелей, он переезжает в Лиллехаммер, небольшой ... 10 10 7
Info! Серебряная раздача, засчитывается только 50% скачанного.
Торрент: Зарегистрирован [2014-11-24 11:13] · скачан: 153 раз
Статус: √ проверено
Размер: 4.3 GB
Как cкачать? Как скачать Лиллехаммер через торрент | UTorrent

28-11-2019 20:33  

Отключить всю рекламу на сайте

    Дорогой пользователь! Огромная просьба, поблагодарите релизера, оцените раздачу и оставьте свои комментарий, если Вы скачали Лиллехаммер через торрент бесплатно! Внесите свою лепту в развитие PiratBit!
    Комментировать посты могут только пользователи прошедшие не сложную регистрацию
    Показать сообщения:    

    Лиллехаммер через торрент
    Скачать бесплатно Лиллехаммер
    Лиллехаммер скачать торрент
    Лиллехаммер смотреть онлайн
    Cкачать фильм Лиллехаммер бесплатно
    Лиллехаммер скачать торрент в хорошем качестве
    Лиллехаммер смотреть онлайн бесплатно в хорошем качестве


    Вы не можете начинать темы
    Вы не можете отвечать на сообщения
    Вы не можете редактировать свои сообщения
    Вы не можете удалять свои сообщения
    Вы не можете голосовать в опросах
    Вы не можете прикреплять файлы к сообщениям
    Вы можете скачивать файлы