2 сезон

iTunes

MVO

1

2 сезон

iTunes

iTunes

1 сезон

RePack

30

Новинка

ВАЖНО

ИГРА 18+

pack

RePack

MK11
pack

Легкие деньги

RePack

jed

RePack

fifa19

RePack

RDR2

RePack

NEED FOR SPEED™ PAYBACK

4 сезон

9 сезон

Бесстыжие 9 сезон

Все сериалы

все сериалы на PB.wtf

RePack

FAR CRY 5

Anonymous, доброе утро, мы не успеваем собрать деньги на оплату серверов за декабрь и январь, помогите нам пожалуйста в это трудное время. В качестве благодарности мы отключим Вам всю рекламу на сайте (укажите свой ник в строку Ваше имя)!

×
  
Magnet ссылка

Добро пожаловать в джунгли / Welcome to the Jungle (Роб Мелцер) [2013, США, Комедия, HDRip,Профессиональный двухголосый [TV 1000] pb.wtf

Добро пожаловать в джунгли через торрент pb.wtf

Размер: 1.46 GB | Добавлен: 6 лет 1 мес. назад | Торрент скачан:548 раз
Скачать  

24-11-2014 14:03 Добро пожаловать в джунгли Скачать торрент  

Добро пожаловать в джунгли / Welcome to the Jungle Год выпуска: 2013
Выпущено:: США, Bauer Martinez Studios, Valhalla Motion Pictures
Жанр: Комедия
Длительность: 01:34:13
Перевод: Профессиональный (двухголосый) [TV 1000]

Режиссер:Роб Мелцер

В ролях:
Адам Броди, Жан-Клод Ван Дамм, Роб Хюбел, Кристен Шаал, Меган Бун, Деннис Хейсбёрт, Бьянка Бри, Эрик Эдельштейн, Роберт Питерс, Аарон Такахаси

Описание:
Персонал дизайнерской фирмы отправляется в отпуск на тропический остров. Коллективный отдых заканчивается самым настоящим хаосом, когда герои сталкиваются с первыми серьезными трудностями.

Качество: HDRip
Формат: AVI
Видео кодек: XviD
Аудио кодек:AC3
Видео: 720x304, 2014 kbps, 23,976 fps, 0.384
Аудио#1: Русский / 2 ch / 48 kHz / 192 kbps / 16 bit
Субтитры: Отсутствуют

Рейтинг:









Общее
Полное имя : D:\uTorrent\Dobro.pozhalovatj.v.dzhungli.2013.P.HDRip.avi
Формат : AVI
Формат/Информация : Audio Video Interleave
Размер файла : 1,46 Гбайт
Продолжительность : 1 ч. 34 м.
Общий поток : 2215 Кбит/сек
Программа кодирования : VirtualDubMod 1.5.10.2 (build 2540/release)
Библиотека кодирования : VirtualDubMod build 2540/release

Видео
Идентификатор : 0
Формат : MPEG-4 Visual
Профиль формата : Advanced Simple@L5
Параметр BVOP формата : 2
Параметр QPel формата : Нет
Параметр GMC формата : Без точки перехода
Параметр матрицы формата : Default (MPEG)
Идентификатор кодека : XVID
Идентификатор кодека/Подсказка : XviD
Продолжительность : 1 ч. 34 м.
Битрейт : 2014 Кбит/сек
Ширина : 720 пикселей
Высота : 304 пикселя
Соотношение сторон : 2,35:1
Частота кадров : 23,976 кадра/сек
Цветовое пространство : YUV
Субдискретизация насыщенности : 4:2:0
Битовая глубина : 8 бит
Тип развёртки : Прогрессивная
Метод сжатия : С потерями
Бит/(Пиксели*Кадры) : 0.384
Размер потока : 1,33 Гбайт (91%)
Библиотека кодирования : XviD 1.2.1 (UTC 2008-12-04)

Аудио
Идентификатор : 1
Формат : AC-3
Формат/Информация : Audio Coding 3
Расширение режима : CM (complete main)
Параметр Endianness формата : Big
Идентификатор кодека : 2000
Продолжительность : 1 ч. 34 м.
Вид битрейта : Постоянный
Битрейт : 192 Кбит/сек
Каналы : 2 канала
Расположение каналов : Front: L R
Частота : 48,0 КГц
Битовая глубина : 16 бит
Метод сжатия : С потерями
Размер потока : 129 Мбайт (9%)
Выравнивание : Разделение по промежуткам
Продолжительность промежутка : 42 мс. (1,00 видеокадр)
Время предзагрузки промежутка : 500 мс.

Приятного просмотра! Не забывайте говорить спасибо!pb.wtf



Скачать Добро пожаловать в джунгли через торрент http://3.firepic.org/3/images/2014-02/08/nod1tec6gf4g.jpg Скачать фильм Добро пожаловать в джунгли через торрент бесплантно в хорошем качестве Описание: Персонал дизайнерской фирмы отправляется в отпуск на тропический остров. Коллективный отдых заканчивается самым настоящим хаосом, ... 9.4 10 23
Торрент: Зарегистрирован [2014-11-24 14:03] · скачан: 548 раз
Статус: √ проверено
Размер: 1.46 GB
Как cкачать? Как скачать Добро пожаловать в джунгли через торрент | UTorrent

% Раздел Тема Автор DL S | L
Фильмы [HD 720p, 1080p] (Хороший звук DUB, MVO) [ 4.5 GB ] Добро пожаловать в джунгли / Welcome to the Jungle [2013 BDRip 720p многоголосый [TV 1000] Anonymous Скачать
1 | 0
Фильмы 2013 [DVDrip, WEB-DLRip, HDrip] [ 1.37 GB ] Добро пожаловать в джунгли / Welcome to the Jungle [2013 HDRip] DVO Ворон Скачать
1 | 0
T Фильмы 2013 [DVDrip, WEB-DLRip, HDrip] [ 1.46 GB ] Добро пожаловать в джунгли / Welcome to the Jungle [2013 Пуэрто Рико BDRip-AVC Ворон Скачать
1 | 0
Фильмы [HD 720p, 1080p] (Хороший звук DUB, MVO) [ 10.43 GB ] Добро пожаловать в джунгли / Welcome to the Jungle [2013 Пуэрто Рико BDRip 1080p Ворон Скачать
1 | 0
Гонзо [ 1.36 GB ] Welcome To The Jungle / Добро пожаловать в джунгли [2010 All Sex Amateur Latin DVDRip] Shmel Скачать
1 | 0

28-11-2019 20:33  

Отключить всю рекламу на сайте

24-11-2014 14:09 Добро пожаловать в джунгли Скачать торрент  

Кому будет интересно могу через часик выложить BDRip (720p) пишите в коментах!pb.wtf



24-11-2014 14:47 Добро пожаловать в джунгли Скачать торрент  

Да, если не трудно дайте 720pb.wtf



24-11-2014 16:44 Добро пожаловать в джунгли Скачать торрент  

Bobr751 писал(а):

Да, если не трудно дайте 720

Как и обещал 720p
http://pb.wtf/post/774921/#post_774921
pb.wtf



24-11-2014 19:35 Добро пожаловать в джунгли Скачать торрент  

тут вообще двухголосый перевод!!!!pb.wtf



27-11-2014 08:33 Добро пожаловать в джунгли Скачать торрент  

Цитата:

Перевод: Профессиональное (многоголосое)

ar4i99 писал(а):

тут вообще двухголосый перевод!!!!

Ага, двухголоска на самом делеpb.wtf



    Дорогой пользователь! Огромная просьба, поблагодарите релизера, оцените раздачу и оставьте свои комментарий, если Вы скачали Добро пожаловать в джунгли через торрент бесплатно! Внесите свою лепту в развитие PiratBit!
    Комментировать посты могут только пользователи прошедшие не сложную регистрацию
    Показать сообщения:    

    Добро пожаловать в джунгли через торрент
    Скачать бесплатно Добро пожаловать в джунгли
    Добро пожаловать в джунгли скачать торрент
    Добро пожаловать в джунгли смотреть онлайн
    Cкачать фильм Добро пожаловать в джунгли бесплатно
    Добро пожаловать в джунгли скачать торрент в хорошем качестве
    Добро пожаловать в джунгли смотреть онлайн бесплатно в хорошем качестве


    Вы не можете начинать темы
    Вы не можете отвечать на сообщения
    Вы не можете редактировать свои сообщения
    Вы не можете удалять свои сообщения
    Вы не можете голосовать в опросах
    Вы не можете прикреплять файлы к сообщениям
    Вы можете скачивать файлы