Ссылка на приватное зеркало нашего сайта всего за 1$. Внимание количество ограничено!!!

2 сезон

iTunes

1 сезон

1

iTunes

iTunes

iTunes

1 сезон

RePack

30

ИГРА 18+

pack

ВАЖНО

!!Акция!!

Alien_RageХит недели

RePack

MK11
pack

Забери бонус

RePack

jed

!!Акция!!

Alien_Rage

RePack

fifa19

RePack

Assassins Creed: Odyssey

RePack

NEED FOR SPEED™ PAYBACK

4 сезон

9 сезон

Бесстыжие 9 сезон

Все сериалы

все сериалы на PB.wtf

RePack

FAR CRY 5
  

Добро пожаловать в джунгли / Welcome to the Jungle (Роб Мелцер) [2013, США, Комедия, BDRip 720p,Профессиональный многоголосый [TV 1000] pb.wtf

Добро пожаловать в джунгли через торрент pb.wtf

Размер: 4.5 GB | Добавлен: 5 лет 11 мес. назад | Торрент скачан:264 раза
Скачать  

24-11-2014 16:41 Добро пожаловать в джунгли Скачать торрент  

Добро пожаловать в джунгли / Welcome to the Jungle Год выпуска: 2013
Выпущено:: США, Bauer Martinez Studios, Valhalla Motion Pictures
Жанр: Комедия
Длительность: 01:34:13
Перевод: Профессиональное (многоголосое) [TV 1000]
Субтитры: Отсутствуют
Режиссер:Роб Мелцер
В ролях:
Адам Броди, Жан-Клод Ван Дамм, Роб Хюбел, Кристен Шаал, Меган Бун, Деннис Хейсбёрт, Бьянка Бри, Эрик Эдельштейн, Роберт Питерс, Аарон Такахаси
Описание:
Персонал дизайнерской фирмы отправляется в отпуск на тропический остров. Коллективный отдых заканчивается самым настоящим хаосом, когда герои сталкиваются с первыми серьезными трудностями.
Рейтинг:

Качество: BDRip 720p [PHD]
Формат: MKV
Видео кодек: MPEG-4 AVC
Аудио кодек:Русский-AC3, Английский-DTS
Видео: 1280x536, 5133 kbps, 23,976 fps, 0.312
Аудио#1: Русский / 2 ch / 48 kHz / 192 kbps / 16 bit
Аудио#2: Английский / 6 ch / 48 kHz / 1510 kbps / 24 bit - DTS
Дополнительно: Сохранены оригинальные чаптеры как на Blu-Ray








Общее
Уникальный идентификатор : 173899023731192981432232907745916310989 (0x82D3BBD47135B4E58D5D1CE1F0A755CD)
Полное имя : D:\uTorrent\Dobro.pozhalovatj.v.dzhungli.2013.P.BDRip.720p.mkv
Формат : Matroska
Версия формата : Version 4 / Version 2
Размер файла : 4,50 Гбайт
Продолжительность : 1 ч. 34 м.
Общий поток : 6837 Кбит/сек
Дата кодирования : UTC 2014-11-23 18:44:25
Программа кодирования : mkvmerge v6.8.0 ('Theme for Great Cities') 64bit built on Mar 2 2014 21:34:26
Библиотека кодирования : libebml v1.3.0 + libmatroska v1.4.1

Видео
Идентификатор : 1
Формат : AVC
Формат/Информация : Advanced Video Codec
Профиль формата : High@L3.1
Параметр CABAC формата : Да
Параметр ReFrames формата : 5 кадров
Идентификатор кодека : V_MPEG4/ISO/AVC
Продолжительность : 1 ч. 34 м.
Битрейт : 5133 Кбит/сек
Ширина : 1280 пикселей
Высота : 536 пикселей
Соотношение сторон : 2,40:1
Режим частоты кадров : Постоянный
Частота кадров : 23,976 кадра/сек
Цветовое пространство : YUV
Субдискретизация насыщенности : 4:2:0
Битовая глубина : 8 бит
Тип развёртки : Прогрессивная
Бит/(Пиксели*Кадры) : 0.312
Размер потока : 3,29 Гбайт (73%)
Библиотека кодирования : x264 core 142 r2389 956c8d8
Настройки программы : cabac=1 / ref=5 / deblock=1:0:0 / analyse=0x3:0x133 / me=umh / subme=7 / psy=1 / psy_rd=1.00:0.00 / mixed_ref=1 / me_range=16 / chroma_me=1 / trellis=1 / 8x8dct=1 / cqm=0 / deadzone=21,11 / fast_pskip=0 / chroma_qp_offset=-2 / threads=6 / lookahead_threads=1 / sliced_threads=0 / nr=0 / decimate=1 / interlaced=0 / bluray_compat=0 / constrained_intra=0 / bframes=3 / b_pyramid=2 / b_adapt=2 / b_bias=0 / direct=3 / weightb=1 / open_gop=0 / weightp=2 / keyint=250 / keyint_min=23 / scenecut=40 / intra_refresh=0 / rc_lookahead=50 / rc=2pass / mbtree=1 / bitrate=5133 / ratetol=1.0 / qcomp=0.60 / qpmin=0 / qpmax=69 / qpstep=4 / cplxblur=20.0 / qblur=0.5 / ip_ratio=1.40 / aq=1:1.00
Язык : English
Default : Да
Forced : Нет

Аудио #1
Идентификатор : 2
Формат : AC-3
Формат/Информация : Audio Coding 3
Расширение режима : CM (complete main)
Параметр Endianness формата : Big
Идентификатор кодека : A_AC3
Продолжительность : 1 ч. 34 м.
Вид битрейта : Постоянный
Битрейт : 192 Кбит/сек
Каналы : 2 канала
Расположение каналов : Front: L R
Частота : 48,0 КГц
Битовая глубина : 16 бит
Метод сжатия : С потерями
Размер потока : 129 Мбайт (3%)
Язык : Russian
Default : Да
Forced : Да

Аудио #2
Идентификатор : 3
Формат : DTS
Формат/Информация : Digital Theater Systems
Режим : 16
Параметр Endianness формата : Big
Идентификатор кодека : A_DTS
Продолжительность : 1 ч. 34 м.
Вид битрейта : Постоянный
Битрейт : 1509 Кбит/сек
Каналы : 6 каналов
Расположение каналов : Front: L C R, Side: L R, LFE
Частота : 48,0 КГц
Битовая глубина : 24 бит
Метод сжатия : С потерями
Размер потока : 1017 Мбайт (22%)
Язык : English
Default : Нет
Forced : Нет

Меню
00:00:00.000 : en:00:00:00.000
00:07:37.415 : en:00:07:37.415
00:16:20.813 : en:00:16:20.813
00:22:29.431 : en:00:22:29.431
00:30:31.872 : en:00:30:31.872
00:37:32.167 : en:00:37:32.167
00:44:06.727 : en:00:44:06.727
00:54:38.901 : en:00:54:38.901
01:05:44.983 : en:01:05:44.983
01:10:06.452 : en:01:10:06.452
01:24:13.632 : en:01:24:13.632
01:28:57.916 : en:01:28:57.916

Приятного просмотра! Не забывайте говорить спасибо!pb.wtf



Скачать Добро пожаловать в джунгли через торрент http://4.firepic.org/4/images/2014-02/10/kzf42ymtdb46.jpg Скачать фильм Добро пожаловать в джунгли через торрент бесплантно в хорошем качестве Описание: Персонал дизайнерской фирмы отправляется в отпуск на тропический остров. Коллективный отдых заканчивается самым настоящим хаосом, ... 9.8 10 24
Info! Золотая раздача, скачанное не засчитывается.
Торрент: Зарегистрирован [2014-11-24 16:41] · скачан: 264 раз
Статус: √ проверено
Размер: 4.5 GB
Как cкачать? Как скачать Добро пожаловать в джунгли через торрент | qTorrent

% Раздел Тема Автор DL S | L
Фильмы 2013 [DVDrip, WEB-DLRip, HDrip] [ 1.46 GB ] Добро пожаловать в джунгли / Welcome to the Jungle [2013 HDRip двухголосый [TV 1000] Anonymous Скачать
1 | 0
Фильмы 2013 [DVDrip, WEB-DLRip, HDrip] [ 1.37 GB ] Добро пожаловать в джунгли / Welcome to the Jungle [2013 HDRip] DVO Ворон Скачать
1 | 0
T Фильмы 2013 [DVDrip, WEB-DLRip, HDrip] [ 1.46 GB ] Добро пожаловать в джунгли / Welcome to the Jungle [2013 Пуэрто Рико BDRip-AVC Ворон Скачать
1 | 0
Фильмы [HD 720p, 1080p] (Хороший звук DUB, MVO) [ 10.43 GB ] Добро пожаловать в джунгли / Welcome to the Jungle [2013 Пуэрто Рико BDRip 1080p Ворон Скачать
1 | 0
Гонзо [ 1.36 GB ] Welcome To The Jungle / Добро пожаловать в джунгли [2010 All Sex Amateur Latin DVDRip] Shmel Скачать
1 | 0

28-11-2019 20:33  

Отключить всю рекламу на сайте

24-11-2014 16:42 Добро пожаловать в джунгли Скачать торрент  

Как и обещал BDRip 720p! Приятного просмотра!pb.wtf



24-11-2014 17:43 Добро пожаловать в джунгли Скачать торрент  

прикольный фильмpb.wtf



24-11-2014 18:56 Добро пожаловать в джунгли Скачать торрент  

По скринам уже ставлю 10, а Ваника хочется посмотреть, .......... хоть и рейтинги неважные ...pb.wtf



24-11-2014 19:17 Добро пожаловать в джунгли Скачать торрент  

золочу чисто за Ж.К.В.Д. прикольно глянуть на старпера pb.wtf



    Дорогой пользователь! Огромная просьба, поблагодарите релизера, оцените раздачу и оставьте свои комментарий, если Вы скачали Добро пожаловать в джунгли через торрент бесплатно! Внесите свою лепту в развитие PiratBit!
    Комментировать посты могут только пользователи прошедшие не сложную регистрацию
    Показать сообщения:    

    Добро пожаловать в джунгли через торрент
    Скачать бесплатно Добро пожаловать в джунгли
    Добро пожаловать в джунгли скачать торрент
    Добро пожаловать в джунгли смотреть онлайн
    Cкачать фильм Добро пожаловать в джунгли бесплатно
    Добро пожаловать в джунгли скачать торрент в хорошем качестве
    Добро пожаловать в джунгли смотреть онлайн бесплатно в хорошем качестве


    Вы не можете начинать темы
    Вы не можете отвечать на сообщения
    Вы не можете редактировать свои сообщения
    Вы не можете удалять свои сообщения
    Вы не можете голосовать в опросах
    Вы не можете прикреплять файлы к сообщениям
    Вы можете скачивать файлы