Ссылка на приватное зеркало всего за 1$. Внимание количество ограничено!!!

iTunes

iTunes

iTunes

1

iTunes

iTunes

iTunes

iTunes

iTunes

30
pack

$ от Little Big

ВАЖНО

!!Акция!!

Alien_RageХит недели

RePack

Resident Evil 21

ИГРА 18+

pack

RePack

jed

!!Акция!!

Alien_Rage

RePack

fifa19

RePack

Assassins Creed: Odyssey

RePack

NEED FOR SPEED™ PAYBACK

4 сезон

9 сезон

Бесстыжие 9 сезон

Все сериалы

все сериалы на PB.wtf

RePack

FAR CRY 5
  

Милосердие / Mercy (Питер Корнвэлл) [2014, США, Ужасы, триллер, WEB-DL 720p, Любительское (двухголосое) [DeadSno & den904] pb.wtf

Милосердие через торрент pb.wtf

Размер: 2.45 GB | Добавлен: 5 лет 7 мес. назад | Торрент скачан:141 раз
Скачать  

24-11-2014 19:34 Милосердие Скачать торрент  

Милосердие / Mercy Год выпуска: 2014
Выпущено:: США
Жанр: Ужасы, триллер
Длительность: 01:18:39
Перевод: Любительское (двухголосое) [DeadSno & den904] - по переводу [dsa69]
Субтитры: Отсутствуют
Режиссер:Питер Корнвэлл
В ролях:
Чендлер Риггз, Дилан МакДермотт, Марк Дюпласс, Фрэнсис О’Коннор, Джоэл Кортни, Аманда Уолш, Ширли Найт, Хана Хэйес, Крис Браунинг, Джо Эгендер
Описание:
Фильм снят по рассказу Стивена Кинга "Бабуля".
У каждой семьи свои тайны. Вот и в семье 11-летнего Джорджа она тоже имеется. Вместе с матерью и братом он отправляется ухаживать за старой больной бабушкой, к чьим странноватым и ужасным сказкам он привык с самого детства. Но они ничто по сравнению со страшным проклятием его семьи, которое преследует их. Страшные сказки детства оживают, ведь бабуля не просто хранила их и передавала вначале детям, а потом внукам, но и была главной героиней самого страшного рассказа...
Рейтинг:

Качество: WEB-DL 720p [EVO]
Формат: MKV
Видео кодек: MPEG-4 AVC
Аудио кодек:Русский-AC3, Английский-AC3
Видео: 1280x528, 3689 kbps, 23,976 fps, 0.228
Аудио#1: Русский / 6 ch / 48 kHz / 384 kbps / 16 bit
Аудио#2: Английский / 6 ch / 48 kHz / 384 kbps / 16 bit
Дополнительно: Сохранены оригинальные чаптеры как на Blu-Ray










General
Mercy.2014.WEB-DL.720p.CINEMANIA.mkv
Format : Matroska
Format version : Version 4 / Version 2
File size : 2.45 GiB
Duration : 1h 18mn
Overall bit rate : 4 464 Kbps
Movie name : Release Group CINEMANIA
Encoded date : UTC 2014-11-24 11:27:36
Writing application : mkvmerge v7.3.0 ('Nouages') 64bit built on Oct 22 2014 18:53:34
Writing library : libebml v1.3.0 + libmatroska v1.4.1

Video
ID : 1
Format : AVC
Format/Info : Advanced Video Codec
Format profile : High@L4.0
Format settings, CABAC : Yes
Format settings, ReFrames : 4 frames
Codec ID : V_MPEG4/ISO/AVC
Duration : 1h 18mn
Bit rate : 3 689 Kbps
Width : 1 280 pixels
Height : 528 pixels
Display aspect ratio : 2.40:1
Frame rate mode : Constant
Frame rate : 23.976 fps
Color space : YUV
Chroma subsampling : 4:2:0
Bit depth : 8 bits
Scan type : Progressive
Bits/(Pixel*Frame) : 0.228
Stream size : 1.98 GiB (81%)
Title : Release Group CINEMANIA
Writing library : x264 core 130 r2273 b3065e6
Encoding settings : cabac=1 / ref=1 / deblock=1:0:0 / analyse=0x3:0x113 / me=hex / subme=2 / psy=1 / psy_rd=1.00:0.00 / mixed_ref=0 / me_range=16 / chroma_me=1 / trellis=0 / 8x8dct=1 / cqm=0 / deadzone=21,11 / fast_pskip=1 / chroma_qp_offset=0 / threads=6 / lookahead_threads=2 / sliced_threads=0 / nr=0 / decimate=1 / interlaced=0 / bluray_compat=0 / constrained_intra=0 / bframes=3 / b_pyramid=2 / b_adapt=1 / b_bias=0 / direct=1 / weightb=1 / open_gop=0 / weightp=1 / keyint=240 / keyint_min=24 / scenecut=40 / intra_refresh=0 / rc_lookahead=10 / rc=abr / mbtree=1 / bitrate=3689 / ratetol=1.0 / qcomp=0.60 / qpmin=0 / qpmax=69 / qpstep=4 / vbv_maxrate=25000 / vbv_bufsize=31250 / nal_hrd=none / ip_ratio=1.40 / aq=1:1.00
Language : English
Default : Yes
Forced : No
Color primaries : BT.709
Transfer characteristics : BT.709
Matrix coefficients : BT.709

Audio #1
ID : 2
Format : AC-3
Format/Info : Audio Coding 3
Mode extension : CM (complete main)
Format settings, Endianness : Big
Codec ID : A_AC3
Duration : 1h 18mn
Bit rate mode : Constant
Bit rate : 384 Kbps
Channel(s) : 6 channels
Channel positions : Front: L C R, Side: L R, LFE
Sampling rate : 48.0 KHz
Bit depth : 16 bits
Compression mode : Lossy
Stream size : 216 MiB (9%)
Title : Влад и Снежинка
Language : Russian
Default : Yes
Forced : Yes

Audio #2
ID : 3
Format : AC-3
Format/Info : Audio Coding 3
Mode extension : CM (complete main)
Format settings, Endianness : Big
Codec ID : A_AC3
Duration : 1h 18mn
Bit rate mode : Constant
Bit rate : 384 Kbps
Channel(s) : 6 channels
Channel positions : Front: L C R, Side: L R, LFE
Sampling rate : 48.0 KHz
Bit depth : 16 bits
Compression mode : Lossy
Stream size : 216 MiB (9%)
Language : English
Default : No
Forced : No

Menu
00:00:00.000 : en:1
00:04:31.000 : en:2
00:09:00.000 : en:3
00:14:49.000 : en:4
00:19:05.000 : en:5
00:24:38.000 : en:6
00:29:11.000 : en:7
00:33:56.000 : en:8
00:38:33.000 : en:9
00:43:59.000 : en:10
00:48:39.000 : en:11
00:53:18.000 : en:12
00:58:40.000 : en:13
01:02:55.000 : en:14
01:06:17.000 : en:15
01:11:20.000 : en:16
01:15:04.000 : en:17

Приятного просмотра! Не забывайте говорить спасибо!pb.wtf



Скачать Милосердие через торрент http://i68.fastpic.ru/big/2014/1124/da/16c9df7befcf85b3f780b19d4ef5d5da.jpg Скачать фильм Милосердие через торрент бесплантно в хорошем качестве Описание: Фильм снят по рассказу Стивена Кинга "Бабуля".У каждой семьи свои тайны. Вот и в семье 11-летнего Джорджа она тоже имеется. ... 9.8 10 6
Торрент: Зарегистрирован [2014-11-24 19:34] · скачан: 141 раз
Статус: T временная
Размер: 2.45 GB
Как cкачать? Как скачать Милосердие через торрент | qTorrent

% Раздел Тема Автор DL S | L
Фильмы [HD 720p, 1080p] (Хороший звук DUB, MVO) [ 4.64 GB ] Нежное милосердие / Tender Mercies [1983 BDRip 720p от KORSAR] [DVO] filbi1976 Скачать
1 | 0
Фильмы (WEB-DL 720p, 1080p) [ 2.5 GB ] Милосердие / Mercy [2014 WEB-DL 1080p ] GEKADOL Скачать
1 | 0
Фильмы 2015 [DVDrip, WEB-DLRip, HDrip] [ 2.86 GB ] Любовь и милосердие / Love & Mercy [2015 биография музыка BDRip-AVC] Dub potroks Скачать
1 | 0
Фильмы [HD 720p, 1080p] (Хороший звук DUB, MVO) [ 8.85 GB ] Любовь и милосердие / Love & Mercy [2015 биография музыка BDRip 720p - / ] _KaisiK_ Скачать
1 | 0
Фильмы 2014 [DVDrip, WEB-DLRip, HDrip] [ 2.05 GB ] Любовь и милосердие / Love & Mercy [2014 биография музыка HDRip] killermax2013 Скачать
1 | 1
Фильмы [HD 720p, 1080p] (Хороший звук DUB, MVO) [ 8.9 GB ] Любовь и милосердие / Love & Mercy [2014 биография музыка BDRip 1080p ][Официальный] Ворон Скачать
1 | 0
T Фильмы 2014 [DVDrip, WEB-DLRip, HDrip] [ 1.37 GB ] Любовь и милосердие / Love & Mercy [2014 биография музыка HDRip] killermax2013 Скачать
1 | 0


Последний раз редактировалось: _Fenixx_ни мужик ни баба (2014-11-24 19:36), всего редактировалось 1 раз

28-11-2019 20:33  

Отключить всю рекламу на сайте

24-11-2014 19:35 Милосердие Скачать торрент  

Как и обещал 720p! Приятного просмотра!pb.wtf



24-11-2014 20:12 Милосердие Скачать торрент  

Малец не из "Ходячих"?pb.wtf



24-11-2014 23:19 Милосердие Скачать торрент  

классное кинцо! оч понравилось! Спасибо Автору Релиза за просмотр и качество!pb.wtf



25-11-2014 00:48 Милосердие Скачать торрент  

8ironwead8 писал(а):

классное кинцо! оч понравилось! Спасибо Автору Релиза за просмотр и качество!

pb.wtf



25-11-2014 01:06 Милосердие Скачать торрент  

Ramzi_IV писал(а):

Малец не из "Ходячих"?

Он самыйpb.wtf



    Дорогой пользователь! Огромная просьба, поблагодарите релизера, оцените раздачу и оставьте свои комментарий, если Вы скачали Милосердие через торрент бесплатно! Внесите свою лепту в развитие PiratBit!
    Комментировать посты могут только пользователи прошедшие не сложную регистрацию
    Показать сообщения:    

    Милосердие через торрент
    Скачать бесплатно Милосердие
    Милосердие скачать торрент
    Милосердие смотреть онлайн
    Cкачать фильм Милосердие бесплатно
    Милосердие скачать торрент в хорошем качестве
    Милосердие смотреть онлайн бесплатно в хорошем качестве


    Вы не можете начинать темы
    Вы не можете отвечать на сообщения
    Вы не можете редактировать свои сообщения
    Вы не можете удалять свои сообщения
    Вы не можете голосовать в опросах
    Вы не можете прикреплять файлы к сообщениям
    Вы можете скачивать файлы