новый адрес
Ссылка на приватное зеркало всего за 1$. Внимание количество ограничено!!!

iTunes

1+1

iTunes

мы

WEB-DL

1

iTunes

Чернобыль

iTunes

Ральф против интернета

Лицензия

ПШазам

Лицензия

Оно 2

Лицензия

30
pack

Вам бонус

ВАЖНО

!!Акция!!

Alien_RageХит недели

RePack

Resident Evil 21

ИГРА 18+

pack

RePack

jed

!!Акция!!

Alien_Rage

RePack

fifa19

RePack

Assassins Creed: Odyssey

RePack

NEED FOR SPEED™ PAYBACK

3 сезон

9 сезон

Бесстыжие 9 сезон

Все сериалы

все сериалы на PB.wtf

RePack

FAR CRY 5
Ребята, катастрофически не хватает 1900р. для оплаты серверов за Октябрь (всвязи с блокировками трафик упал в 3 раза), 1-2р., выручайте.
  

А зори здесь тихие (Станислав Ростоцкий) [1972 г., военный, драма, DVD5 (сжатый)] pb.wtf

А зори здесь тихие через торрент pb.wtf

Размер: 8.31 GB | Добавлен: 5 лет назад | Торрент скачан:3 раза
Скачать  

25-11-2014 06:21 А зори здесь тихие Скачать торрент  

А зори здесь тихие
Год выпуска: 1972
Страна: СССР
Жанр: военный, драма
Продолжительность: 01:32:51 + 01:23:20

Режиссер: Станислав Ростоцкий



В ролях: Андрей Мартынов, Ирина Шевчук, Ольга Остроумова, Елена Драпенко, Ирина Долганова, Екатерина Маркова, Людмила Зайцева, Алла Мещерякова, Георгий Мартынюк, Владимир Ивашов, Борис Токарев

Описание: Экранизация повести Бориса Васильева с любовью и печалью о своем поколении - унесённом войной, не прожившем отмеренный ему срок, но исполнившими воинский долг.
Россия, Карелия, лето 1942 года. Тыловой гарнизон зенитчиц. Получены данные о двух диверсантах и возможном маршруте их движения. Старшина Васков и пять девушек организовывают преследование с целью ликвидации диверсантов, но принять приходится неравный бой против шестнадцати.
Один из фильмов-шедевров о Великой Отечественной войне.
Это двухдисковый (2хDVD5) бюджетный вариант фильма с добавленными недостающими фрагментами.
За основу взято то, что выпустило Ruscico в 2004г.
Предисловие.
Лицензионный вариант от Ruscico "забавен":
1. Первая часть 76мин., оригинал - 99мин.
Вторая часть 81мин., оригинал - 89мин. На коврике надпись "Продолжительность 190мин."
Притом, что существует полная копия фильма, которую крутят по ТВ. Зато много допов, аудио версий две (english 6 ch, francais 6 ch), 11 субтитров.
Лакуны, по местоположению и смыслу не поддаются логическому объяснению. Ориентир на забугорного потребителя, требования импортера о сокращении длительности "с целью придания динамизма"или вот такая копия к нам попала - это уже не важно и репутации Ruscico не добавит. У Мастера (Ст.Ростоцкий) ничего лишнего не бывает.
Недостающие фрагменты, приводят к нарушению внутренней логики фильма и упрощению характеров гл.героев. Никто не поймет, зачем была организована баня, почему Женя решила спеть романс, как меняется восприятие старшины Васкова от солдат "в среднем роде" до сестер и брата итп. Если, конечно, ранее не видел классический вариант фильма.
2. Качество видео - низкое. Целый набор шумов от артефактов цифровой обработки, до шумов связанных с дефектами кинопленки как по яркостному, так и по цветоразностным каналам.
3. Звук - достойный.
Конец предисловия.
Сделаны следующие изменения:
1. Видео
- коррекция цветопередачи и яркости - контрастности (см. скриншоты)
- где возможно вставлены недостающие фрагменты (но не все), которые нашлись только в различных вариантах SatRip. Всего добавлено 34 фрагмента от 6сек. и более, многочисленные куски по 2-3сек. по всей длине фильма и несколько видовых не использовались.
- убран мелкий шум. Применялся Carbon Coder в многопроходном режиме и фильтр NeatVideo.
2. Звук. Оставлена одна аудио версия AC3 5.1.
3. Допы, субтитры, реклама и предупреждения убраны.
4. Меню от основы, убраны не используемые закладки.
Качество: DVD5 (сжатый)
Формат: DVD Video
Видео кодек: MPEG2
Аудио кодек: AC3
Видео: 720x576 (16:9), 25.000 fps, 9 300 Kbps (0.573 bit/pixel)
Аудио#1: 48.0 KHz, 6 ch, 448 Kbps, CBR
Общее
Полное имя : H:\А зори здесь тихие\Зори\1_DVD\VIDEO_TS\VTS_01_1.VOB
Формат : MPEG-PS
Размер файла : 1000 Мбайт
Продолжительность : 21 м.
Режим общего битрейта : Переменный
Общий поток : 6520 Кбит/сек
Библиотека кодирования : (c) 1998-2005 Womble Multimedia, Inc. / MPEG Video Wizard (09/2005) / Mar 2 2006

Видео
Идентификатор : 224 (0xE0)
Формат : MPEG Video
Версия формата : Version 2
Профиль формата : Main@Main
Параметр BVOP формата : Да
Параметр матрицы формата : Выборочная
Параметр GOP формата : M=3, N=15
Format_Settings_PictureStructure : Frame
Продолжительность : 21 м.
Вид битрейта : Переменный
Битрейт : 5942 Кбит/сек
Максимальный битрейт : 9300 Кбит/сек
Ширина : 720 пикселей
Высота : 576 пикселей
Соотношение сторон : 16:9
Частота кадров : 25,000 кадров/сек
Стандарт вещания : PAL
Цветовое пространство : YUV
Субдискретизация насыщенности : 4:2:0
Битовая глубина : 8 бит
Тип развёртки : Чересстрочная
Порядок развёртки : Верхнее поле первое
Метод сжатия : С потерями
Бит/(Пиксели*Кадры) : 0.573
Временной код первого кадра : 00:00:00:00
Оригинал временного кода : Group of pictures header
Размер потока : 911 Мбайт (91%)
Библиотека кодирования : (c) 1998-2005 Womble Multimedia, Inc. / MPEG Video Wizard (09/2005) / Mar 2 2006
Gop_OpenClosed_FirstFrame : Closed

Аудио
Идентификатор : 189 (0xBD)-128 (0x80)
Формат : AC-3
Формат/Информация : Audio Coding 3
Расширение режима : CM (complete main)
Параметр Endianness формата : Big
Режим смешивания : DVD-Video
Продолжительность : 21 м.
Вид битрейта : Постоянный
Битрейт : 448 Кбит/сек
Каналы : 6 каналов
Расположение каналов : Front: L C R, Side: L R, LFE
Частота : 48,0 КГц
Битовая глубина : 16 бит
Метод сжатия : С потерями
Размер потока : 68,7 Мбайт (7%)

Меню

pb.wtf



Скачать А зори здесь тихие через торрент http://pic.kartinco.top/images/8/p18pq.jpg Скачать фильм А зори здесь тихие через торрент бесплантно в хорошем качестве Описание: Экранизация повести Бориса Васильева с любовью и печалью о своем поколении - унесённом войной, не прожившем отмеренный ему срок, ... 10 10 5
Info! Золотая раздача, скачанное не засчитывается.
Торрент: Зарегистрирован [2014-11-25 06:21] · скачан: 3 раз
Статус: √ проверено
Размер: 8.31 GB
Как cкачать? Как скачать А зори здесь тихие через торрент | qTorrent

% Раздел Тема Автор DL S | L
R.G.Resident - Сериалы, Видео [ 2.88 GB ] А зори здесь тихие... / Серии 01-04 из 04 [2015 военный история WEB-DLRip-AVC от R.G. Resident] -Lexx- Скачать
2 | 0
Наши сериалы [ 6.17 GB ] А зори здесь тихие... / Серии 01-04 из 04 [2015 военный история WEB-DL 1080p] -Lexx- Скачать
1 | 0
Наши новые фильмы 2015 [ 1.37 GB ] А зори здесь тихие... [2015 Россия военный история WEB-DLRip] GEKADOL Скачать
1 | 0
Наши фильмы (HD, WEB-DL 720p, 1080p) [ 4 GB ] А зори здесь тихие... [2015 Россия военный история WEB-DL 1080p] GEKADOL Скачать
1 | 0
Наши сериалы [ 7.04 GB ] А зори здесь тихие / Серии : 1-12 из 12 [2005 военный ВОВ ремейк экранизация DVDRip] lug30 Скачать
1 | 0
Кино СССР [ 1.46 GB ] А зори здесь тихие [1972 военный история DVDRip Оригинал] wekotila Скачать
1 | 0

28-11-2019 20:33  

Отключить всю рекламу на сайте

    Дорогой пользователь! Огромная просьба, поблагодарите релизера, оцените раздачу и оставьте свои комментарий, если Вы скачали А зори здесь тихие через торрент бесплатно! Внесите свою лепту в развитие PiratBit!
    Комментировать посты могут только пользователи прошедшие не сложную регистрацию
    Показать сообщения:    

    А зори здесь тихие через торрент
    Скачать бесплатно А зори здесь тихие
    А зори здесь тихие скачать торрент
    А зори здесь тихие смотреть онлайн
    Cкачать фильм А зори здесь тихие бесплатно
    А зори здесь тихие скачать торрент в хорошем качестве
    А зори здесь тихие смотреть онлайн бесплатно в хорошем качестве


    Вы не можете начинать темы
    Вы не можете отвечать на сообщения
    Вы не можете редактировать свои сообщения
    Вы не можете удалять свои сообщения
    Вы не можете голосовать в опросах
    Вы не можете прикреплять файлы к сообщениям
    Вы можете скачивать файлы