новый адрес
Ссылка на приватное зеркало всего за 1$. Внимание количество ограничено!!!

iTunes

1+1

iTunes

мы

WEB-DL

1

iTunes

Чернобыль

iTunes

Ральф против интернета

Лицензия

ПШазам

Лицензия

Оно 2

Лицензия

30
pack

Вам бонус

ВАЖНО

!!Акция!!

Alien_RageХит недели

RePack

Resident Evil 21

ИГРА 18+

pack

RePack

jed

!!Акция!!

Alien_Rage

RePack

fifa19

RePack

Assassins Creed: Odyssey

RePack

NEED FOR SPEED™ PAYBACK

3 сезон

9 сезон

Бесстыжие 9 сезон

Все сериалы

все сериалы на PB.wtf

RePack

FAR CRY 5
Ребята, катастрофически не хватает 1900р. для оплаты серверов за Октябрь (всвязи с блокировками трафик упал в 3 раза), 1-2р., выручайте.
  

Сердце Бонивура (Марк Орлов) [1971 г., военный, история, приключения, DVD5] pb.wtf

Сердце Бонивура через торрент pb.wtf

Размер: 7.76 GB | Добавлен: 5 лет назад | Торрент скачан:12 раз
Скачать  

25-11-2014 06:43 Сердце Бонивура Скачать торрент  

Сердце Бонивура
Год выпуска: 1971
Страна: СССР
Жанр: военный, история, приключения
Продолжительность: 01:14:53 + 01:12:55

Режиссер: Марк Орлов



В ролях: Лев Прыгунов, Борис Чирков, Иван Переверзев, Виктор Коршунов, Петр Глебов, Лилия Дзюба, Майя Булгакова, Тамара Королюк, Евгений Буренков, Герман Колушкин, Павел Волков, Галина Гальченко, Анатолий Юрченко, Юрий Лавров, Владимир Дальский, Сергей Курилов, Георгий Куликов, Владимир Емельянов, Владимир Волчик, Виктор Кондратюк, Виктор Чекмарев, Николай Кузьмин, Евгений Гвоздёв

Описание: Сценарий Андрей Шемшурин. По одноименному роману Дмитрия Нагишкина. 2-е серии.

Фильм посвящен молодому подпольщику, комсомольцу Виталию Бонивуру, боровшемуся за установление Советской власти на Дальнем Востоке. Прототипом главного героя послужил комсомолец-партизан Виталий Борисович Баневур.

Премьера фильма состоялась на Первой программе Центрального телевидения 21 октября 1969 года, к Дню рождения комсомола.
В 1971 году на экраны страны вышла двухсерийная киноверсия картины, премьера которой была приурочена к 53 годовщине Вооруженных сил СССР и состоялась 23 февраля.

Качество: DVD5
Формат: DVD Video
Видео кодек: MPEG2
Аудио кодек: AC3
Видео: 720x576 (4:3), 25.000 fps, 9 000 Kbps (0.673 bit/pixel)
Аудио#1: 48.0 KHz, 2 ch, 384 Kbps, CBR
Общее
Полное имя : H:\Сердце Бонивура\BONIVUR\BONIVUR1\VIDEO_TS\VTS_01_1.VOB
Формат : MPEG-PS
Размер файла : 1024 Мбайт
Продолжительность : 19 м.
Режим общего битрейта : Переменный
Общий поток : 7508 Кбит/сек
Библиотека кодирования : (c) 1998-2008 Womble Multimedia, Inc. / MPEG Video Wizard (08/2008) / Dec 31 2008

Видео
Идентификатор : 224 (0xE0)
Формат : MPEG Video
Версия формата : Version 2
Профиль формата : Main@Main
Параметр BVOP формата : Да
Параметр матрицы формата : Выборочная
Параметр GOP формата : M=3, N=12
Format_Settings_PictureStructure : Frame
Продолжительность : 19 м.
Вид битрейта : Переменный
Битрейт : 6975 Кбит/сек
Максимальный битрейт : 9000 Кбит/сек
Ширина : 720 пикселей
Высота : 576 пикселей
Соотношение сторон : 4:3
Частота кадров : 25,000 кадров/сек
Стандарт вещания : PAL
Цветовое пространство : YUV
Субдискретизация насыщенности : 4:2:0
Битовая глубина : 8 бит
Тип развёртки : Чересстрочная
Порядок развёртки : Верхнее поле первое
Метод сжатия : С потерями
Бит/(Пиксели*Кадры) : 0.673
Временной код первого кадра : 00:00:00:00
Оригинал временного кода : Group of pictures header
Размер потока : 951 Мбайт (93%)
Библиотека кодирования : (c) 1998-2008 Womble Multimedia, Inc. / MPEG Video Wizard (08/2008) / Dec 31 2008
Gop_OpenClosed_FirstFrame : Closed

Аудио
Идентификатор : 189 (0xBD)-128 (0x80)
Формат : AC-3
Формат/Информация : Audio Coding 3
Расширение режима : CM (complete main)
Параметр Endianness формата : Big
Режим смешивания : DVD-Video
Продолжительность : 19 м.
Вид битрейта : Постоянный
Битрейт : 384 Кбит/сек
Каналы : 2 канала
Расположение каналов : Front: L R
Частота : 48,0 КГц
Битовая глубина : 16 бит
Метод сжатия : С потерями
Размер потока : 52,4 Мбайт (5%)

Меню


Сердце Бонивура скачать торрент


pb.wtf



Скачать Сердце Бонивура через торрент http://pic.kartinco.top/images/8/9zjsc.jpg Скачать фильм Сердце Бонивура через торрент бесплантно в хорошем качестве Описание: Сценарий Андрей Шемшурин. По одноименному роману Дмитрия Нагишкина. 2-е серии.Фильм посвящен молодому подпольщику, комсомольцу ... 9.8 10 6
Торрент: Зарегистрирован [2014-11-25 06:56] · скачан: 12 раз
Статус: √ проверено
Размер: 7.76 GB
Как cкачать? Как скачать Сердце Бонивура через торрент | qTorrent

% Раздел Тема Автор DL S | L
Кино СССР [ 2.86 GB ] Сердце Бонивура [4 серии] [1969 история TVRip] smaster Скачать
1 | 0

28-11-2019 20:33  

Отключить всю рекламу на сайте

    Дорогой пользователь! Огромная просьба, поблагодарите релизера, оцените раздачу и оставьте свои комментарий, если Вы скачали Сердце Бонивура через торрент бесплатно! Внесите свою лепту в развитие PiratBit!
    Комментировать посты могут только пользователи прошедшие не сложную регистрацию
    Показать сообщения:    

    Сердце Бонивура через торрент
    Скачать бесплатно Сердце Бонивура
    Сердце Бонивура скачать торрент
    Сердце Бонивура смотреть онлайн
    Cкачать фильм Сердце Бонивура бесплатно
    Сердце Бонивура скачать торрент в хорошем качестве
    Сердце Бонивура смотреть онлайн бесплатно в хорошем качестве


    Вы не можете начинать темы
    Вы не можете отвечать на сообщения
    Вы не можете редактировать свои сообщения
    Вы не можете удалять свои сообщения
    Вы не можете голосовать в опросах
    Вы не можете прикреплять файлы к сообщениям
    Вы можете скачивать файлы