Ссылка на приватное зеркало всего за 1$. Внимание количество ограничено!!!

iTunes

1+1

iTunes

мы

WEB-DL

1

iTunes

Чернобыль

iTunes

Ральф против интернета

Лицензия

ПШазам

Лицензия

Оно 2

Лицензия

30
pack

Вам бонус

ВАЖНО

!!Акция!!

Alien_RageХит недели

RePack

Resident Evil 21

ИГРА 18+

pack

RePack

jed

!!Акция!!

Alien_Rage

RePack

fifa19

RePack

Assassins Creed: Odyssey

RePack

NEED FOR SPEED™ PAYBACK

3 сезон

9 сезон

Бесстыжие 9 сезон

Все сериалы

все сериалы на PB.wtf

RePack

FAR CRY 5
Ребята, катастрофически не хватает 1900р. для оплаты серверов за Октябрь (всвязи с блокировками трафик упал в 3 раза), 1-2р., выручайте.
  

Первая конная (Владимир Любомудров) [1984 г., военный, история, SATRip] pb.wtf

Первая конная через торрент pb.wtf

Размер: 1.16 GB | Добавлен: 5 лет назад | Торрент скачан:95 раз
Скачать  

25-11-2014 07:19 Первая конная Скачать торрент  

Первая конная
Год выпуска: 1984
Страна: СССР
Жанр: военный, история
Продолжительность: 2:00:08

Режиссер: Владимир Любомудров



В ролях: Вадим Спиридонов — Будённый, Евгений Жариков — командарм Ворошилов, Всеволод Ларионов — командующий фронтом Егоров, Георгий Мартынюк, Александр Ермаков, Нуржуман Ихтымбаев, Александр Потапов, Владимир Приходько, Виктор Филиппов, Евгений Леонов-Гладышев, Юрий Назаров, Борис Химичев, Виктор Павлов, Владимир Кашпур, Станислав Чекан, Юрий Сучков — ординарец Будённого Федька, Михаил Кокшенов, Геннадий Корольков, Иван Косых, Елена Проклова, Андрей Ростоцкий, Роман Хомятов, Сергей Проханов

Описание: Фильм переносит нас во времена гражданской войны, когда молодую Советскую Влacть отстаивали первые герои этой страшной междоусобной войны. Красным командирам Семену Буденному и Клименту Ворошилову удалось собрать целую армию «красных кавалеристов» — так началась история походов «по долинам и по взгорьям» легендарной Первой Конной армии

Качество: SATRip
Формат: AVI
Видео кодек: XviD
Аудио кодек: MP3
Видео: XviD, 696x322 (2.2:1), 25.000 fps, 1 087 Kbps (0.194 bit/pixel)
Аудио#1: 48.0 KHz, 2 ch, 192 Kbps, CBR
Общее
Полное имя : H:\Первая конная\pervaja_konnaja_[torrents.ru].avi
Формат : AVI
Формат/Информация : Audio Video Interleave
Размер файла : 1,16 Гбайт
Продолжительность : 2 ч. 8 м.
Общий поток : 1289 Кбит/сек
Библиотека кодирования : VirtualDub-MPEG2 build 24600/release

Видео
Идентификатор : 0
Формат : MPEG-4 Visual
Профиль формата : Advanced Simple@L5
Параметр BVOP формата : 2
Параметр QPel формата : Нет
Параметр GMC формата : Без точки перехода
Параметр матрицы формата : Default (H.263)
Режим смешивания : Сжатый битовый поток
Идентификатор кодека : XVID
Идентификатор кодека/Подсказка : XviD
Продолжительность : 2 ч. 8 м.
Битрейт : 1087 Кбит/сек
Ширина : 696 пикселей
Высота : 322 пикселя
Соотношение сторон : 2,2:1
Частота кадров : 25,000 кадров/сек
Цветовое пространство : YUV
Субдискретизация насыщенности : 4:2:0
Битовая глубина : 8 бит
Тип развёртки : Прогрессивная
Метод сжатия : С потерями
Бит/(Пиксели*Кадры) : 0.194
Размер потока : 1000 Мбайт (84%)
Библиотека кодирования : XviD 1.2.0.dev47 (UTC 2006-11-01)

Аудио
Идентификатор : 1
Формат : MPEG Audio
Версия формата : Version 1
Профиль формата : Layer 3
Режим : Joint stereo
Идентификатор кодека : 55
Идентификатор кодека/Подсказка : MP3
Продолжительность : 2 ч. 8 м.
Вид битрейта : Постоянный
Битрейт : 192 Кбит/сек
Каналы : 2 канала
Частота : 48,0 КГц
Метод сжатия : С потерями
Размер потока : 177 Мбайт (15%)
Выравнивание : Разделение по промежуткам
Продолжительность промежутка : 40 мс. (1,00 видеокадр)
Время предзагрузки промежутка : 500 мс.


Первая конная скачать торрент


pb.wtf



Скачать Первая конная через торрент http://pic.kartinco.top/images/8/f3nbr.jpg Скачать фильм Первая конная через торрент бесплантно в хорошем качестве Описание: Фильм переносит нас во времена гражданской войны, когда молодую Советскую Влacть отстаивали первые герои этой страшной ... 10 10 7
Торрент: Зарегистрирован [2014-11-25 07:19] · скачан: 95 раз
Статус: √ проверено
Размер: 1.16 GB
Как cкачать? Как скачать Первая конная через торрент | qTorrent

% Раздел Тема Автор DL S | L
Фантастика [ 649 MB ] Виталий Останин - Остерия "Старый Конь". Дело Первое: Кьята [Илья Дементьев 2018 256 kbps MP3] oleg8 Скачать
1 | 0
Кино СССР [ 1.09 GB ] Первая конная [1984 СССР военный история DVDRip-AVC от AVP Studio] AVP Studio Скачать
1 | 0
Кино СССР [ 1.09 GB ] Первая конная [1984 СССР военный история DVDRip от AVP Studio] AVP Studio Скачать
1 | 0
Кино СССР [ 1.46 GB ] Первая Конная [1941 военный история DVDRip от New-Team] Ворон Скачать
1 | 0

28-11-2019 20:33  

Отключить всю рекламу на сайте


    Дорогой пользователь! Огромная просьба, поблагодарите релизера, оцените раздачу и оставьте свои комментарий, если Вы скачали Первая конная через торрент бесплатно! Внесите свою лепту в развитие PiratBit!
    Комментировать посты могут только пользователи прошедшие не сложную регистрацию
    Показать сообщения:    

    Первая конная через торрент
    Скачать бесплатно Первая конная
    Первая конная скачать торрент
    Первая конная смотреть онлайн
    Cкачать фильм Первая конная бесплатно
    Первая конная скачать торрент в хорошем качестве
    Первая конная смотреть онлайн бесплатно в хорошем качестве


    Вы не можете начинать темы
    Вы не можете отвечать на сообщения
    Вы не можете редактировать свои сообщения
    Вы не можете удалять свои сообщения
    Вы не можете голосовать в опросах
    Вы не можете прикреплять файлы к сообщениям
    Вы можете скачивать файлы