Ссылка на приватное зеркало нашего сайта всего за 1$. Внимание количество ограничено!!!

2 сезон

iTunes

1 сезон

1

2 сезон

2 сезон

iTunes

1 сезон

RePack

30

Ultimate

ВАЖНО

ИГРА 18+

pack

RePack

MK11
pack

Забери бонус

RePack

jed

!!Акция!!

Alien_Rage

RePack

fifa19

RePack

Assassins Creed: Odyssey

RePack

NEED FOR SPEED™ PAYBACK

4 сезон

9 сезон

Бесстыжие 9 сезон

Все сериалы

все сериалы на PB.wtf

RePack

FAR CRY 5
  

Крах / Падение / The Fall / Сезон: 1 / Серии: 1-5 (5) (Джейкоб Вербрюгген / Jakob Verbruggen) [2013 г., Триллер, драма, BDRip 720p] MVO (Jaskier) + Subs (Rus, Eng) pb.wtf

Крах через торрент pb.wtf

Размер: 11.78 GB | Добавлен: 5 лет 11 мес. назад | Торрент скачан:111 раз
Скачать  

25-11-2014 08:09 Крах Скачать торрент  

Крах / Падение / The Fall
Год выпуска: 2013
Страна: Великобритания, США
Жанр: триллер, драма
Продолжительность: 01:00:00
Перевод: Профессиональный многоголосый
Субтитры: Русские (Moorena), Английские (Full, SDH)

Режиссер: Джейкоб Вербрюгген



В ролях: Джиллиан Андерсон / Gillian Anderson , Джеми Дорнан / Jamie Dornan , Лаура Доннелли / Laura Donnelly , Брона Во / Bronagh Waugh , Бен Пил / Ben Peel , Майкл МакЭлхаттон / Michael McElhatton , Ниам МакГрэйди / Niamh McGrady , Фрэнк Маккаскер / Frank McCusker , Джон Линч / John Lynch и другие

Описание: Сериал «Крах» (The Fall) – психологический триллер, действие которого разворачивается в городе Белфаст в Северной Ирландии.
Местное население здесь терроризирует серийный убийца, и городская полиция никак не может вычислить этого маньяка. Детектив Стелла Гибсон (Джиллиан Андерсон) берется разобраться в этом загадочном мрачном деле. Героиня сериала не успокоится, пока не найдет преступника.

Качество: BDRip 720p
Формат: MKV
Видео кодек: AVC
Аудио кодек: AC3
Видео: 1280x720 (16:9), 25.000 fps, 5 692 Kbps (0.247 bit/pixel)
Аудио#1: 48.0 KHz, 2 ch, 192 Kbps, CBR (Russian) |Jaskier|
Аудио#2: 48.0 KHz, 2 ch, 640 Kbps, CBR (English)
Озвучка: Сергей Пономарёв, Денис Строев, Михаил Кшиштовский, Вячеслав Козлов и Рина Гришина
Перевод: Doctor Joker и MartinaG
Общее
Уникальный идентификатор : 251928665318326569139247292263472499438 (0xBD87B22F961011FE95DA400C0AE70AEE)
Полное имя : H:\The.Fall.s01e01.BDRip.720p.Rus.Eng.mkv
Формат : Matroska
Версия формата : Version 4 / Version 2
Размер файла : 2,75 Гбайт
Продолжительность : 59 м.
Общий поток : 6656 Кбит/сек
Дата кодирования : UTC 2013-06-24 20:31:34
Программа кодирования : mkvmerge v6.2.0 ('Promised Land') built on Apr 28 2013 12:22:01
Библиотека кодирования : libebml v1.3.0 + libmatroska v1.4.0

Видео
Идентификатор : 1
Формат : AVC
Формат/Информация : Advanced Video Codec
Профиль формата : High@L4.1
Параметр CABAC формата : Да
Параметр ReFrames формата : 9 кадров
Идентификатор кодека : V_MPEG4/ISO/AVC
Продолжительность : 59 м.
Битрейт : 5692 Кбит/сек
Ширина : 1280 пикселей
Высота : 720 пикселей
Соотношение сторон : 16:9
Режим частоты кадров : Постоянный
Частота кадров : 25,000 кадров/сек
Цветовое пространство : YUV
Субдискретизация насыщенности : 4:2:0
Битовая глубина : 8 бит
Тип развёртки : Прогрессивная
Бит/(Пиксели*Кадры) : 0.247
Размер потока : 2,35 Гбайт (86%)
Заголовок : Release by LegendKiev
Библиотека кодирования : x264 core 132 r2323+704+51 d571b1c tMod [8-bit@4:2:0 X86_64]
Настройки программы : cabac=1 / ref=9 / deblock=1:-3:-3 / analyse=0x3:0x113 / me=umh / subme=11 / psy=1 / fade_compensate=0.00 / psy_rd=1.05:0.00 / mixed_ref=1 / me_range=32 / chroma_me=1 / trellis=2 / 8x8dct=1 / cqm=0 / deadzone=21,11 / fast_pskip=0 / chroma_qp_offset=-2 / threads=36 / lookahead_threads=5 / sliced_threads=0 / nr=0 / decimate=0 / interlaced=0 / bluray_compat=0 / constrained_intra=0 / fgo=0 / bframes=8 / b_pyramid=2 / b_adapt=2 / b_bias=0 / direct=3 / weightb=1 / open_gop=0 / weightp=2 / keyint=240 / keyint_min=24 / scenecut=40 / intra_refresh=0 / rc=crf / mbtree=0 / crf=18.0000 / qcomp=0.70 / qpmin=0 / qpmax=69 / qpstep=4 / ip_ratio=1.20 / pb_ratio=1.20 / aq=4:0.90 / aq-sensitivity=10.00 / aq-factor=1.00:1.00:1.00 / aq2=0 / aq3=0
Язык : English
Default : Да
Forced : Нет

Аудио #1
Идентификатор : 2
Формат : AC-3
Формат/Информация : Audio Coding 3
Расширение режима : CM (complete main)
Параметр Endianness формата : Big
Идентификатор кодека : A_AC3
Продолжительность : 59 м.
Вид битрейта : Постоянный
Битрейт : 192 Кбит/сек
Каналы : 2 канала
Расположение каналов : Front: L R
Частота : 48,0 КГц
Битовая глубина : 16 бит
Метод сжатия : С потерями
Размер потока : 81,2 Мбайт (3%)
Заголовок : Jaskier
Язык : Russian
Default : Да
Forced : Нет

Аудио #2
Идентификатор : 3
Формат : AC-3
Формат/Информация : Audio Coding 3
Расширение режима : CM (complete main)
Параметр Endianness формата : Big
Идентификатор кодека : A_AC3
Продолжительность : 59 м.
Вид битрейта : Постоянный
Битрейт : 640 Кбит/сек
Каналы : 2 канала
Расположение каналов : Front: L R
Частота : 48,0 КГц
Битовая глубина : 16 бит
Метод сжатия : С потерями
Размер потока : 271 Мбайт (10%)
Язык : English
Default : Нет
Forced : Нет

Текст #1
Идентификатор : 4
Формат : UTF-8
Идентификатор кодека : S_TEXT/UTF8
Идентификатор кодека/Информация : UTF-8 Plain Text
Язык : Russian
Default : Нет
Forced : Нет

Текст #2
Идентификатор : 5
Формат : UTF-8
Идентификатор кодека : S_TEXT/UTF8
Идентификатор кодека/Информация : UTF-8 Plain Text
Язык : English
Default : Нет
Forced : Нет

Текст #3
Идентификатор : 6
Формат : UTF-8
Идентификатор кодека : S_TEXT/UTF8
Идентификатор кодека/Информация : UTF-8 Plain Text
Заголовок : SDH
Язык : English
Default : Нет
Forced : Нет


Крах / Падение скачать торрент


pb.wtf



Скачать Крах через торрент http://pic.kartinco.top/images/8/isktd.jpg Скачать фильм Крах через торрент бесплантно в хорошем качестве Описание: Сериал «Крах» (The Fall) – психологический триллер, действие которого разворачивается в городе Белфаст в Северной ... 8.6 10 5
Info! Золотая раздача, скачанное не засчитывается.
Торрент: Зарегистрирован [2014-11-25 08:09] · скачан: 111 раз
Статус: √ проверено
Размер: 11.78 GB
Как cкачать? Как скачать Крах через торрент | qTorrent

% Раздел Тема Автор DL S | L
Зарубежные сериалы [ 3.2 GB ] Падение / The Fall / Сезон: 1 / Серии: 1-5 из 5 [2013 Психологический ьный ] MVO Jaskier lug30 Скачать
1 | 0

28-11-2019 20:33  

Отключить всю рекламу на сайте

25-11-2014 14:29 Крах Скачать торрент  

Как сериал?На что похож?pb.wtf



25-11-2014 15:20 Крах Скачать торрент  

chareos писал(а):

Как сериал?На что похож?

Агата Кристи и Хичкок в одном флаконе...разбавленный водичкой, но вполне смотребельноpb.wtf



    Дорогой пользователь! Огромная просьба, поблагодарите релизера, оцените раздачу и оставьте свои комментарий, если Вы скачали Крах через торрент бесплатно! Внесите свою лепту в развитие PiratBit!
    Комментировать посты могут только пользователи прошедшие не сложную регистрацию
    Показать сообщения:    

    Крах через торрент
    Скачать бесплатно Крах
    Крах скачать торрент
    Крах смотреть онлайн
    Cкачать фильм Крах бесплатно
    Крах скачать торрент в хорошем качестве
    Крах смотреть онлайн бесплатно в хорошем качестве


    Вы не можете начинать темы
    Вы не можете отвечать на сообщения
    Вы не можете редактировать свои сообщения
    Вы не можете удалять свои сообщения
    Вы не можете голосовать в опросах
    Вы не можете прикреплять файлы к сообщениям
    Вы можете скачивать файлы