Ссылка на приватное зеркало нашего сайта всего за 1$. Внимание количество ограничено!!!

2 сезон

iTunes

1 сезон

1

iTunes

iTunes

iTunes

1 сезон

RePack

30

ИГРА 18+

pack

ВАЖНО

!!Акция!!

Alien_RageХит недели

RePack

MK11
pack

Забери бонус

RePack

jed

!!Акция!!

Alien_Rage

RePack

fifa19

RePack

Assassins Creed: Odyssey

RePack

NEED FOR SPEED™ PAYBACK

4 сезон

9 сезон

Бесстыжие 9 сезон

Все сериалы

все сериалы на PB.wtf

RePack

FAR CRY 5
  

Легавый (2 сезон: 1-32 серии из 32) (Олег Фомин) [2014 г., Детектив, DVB] Оригинал pb.wtf

Легавый через торрент pb.wtf

Размер: 28.88 GB | Добавлен: 5 лет 10 мес. назад | Торрент скачан:119 раз
Скачать  

25-11-2014 12:10 Легавый Скачать торрент  

Легавый (2 сезон)
Год выпуска: 2014
Страна: Россия
Жанр: Детектив
Продолжительность: 32 x ~ 00:45:30
Перевод: Оригинал
Субтитры: нет

Режиссер: Олег Фомин

В ролях: Николай Козак, Эдуард Флёров, Михаил Горевой, Михаил Павлик, Андрей Гусев, Елена Полякова, Елена Мольченко, Екатерина Олькина, Дмитрий Горевой, Павел Ясенок, Максим Щёголев, Олег Данилевский, Олег Флеер, Евгений Смирнов-Иваницкий, Игорь Воробьёв, Евгений Березовский, Олег Фомин, Артурс Пуполс-Кочаневский, Владислав Резник, Владимир Бадов, Сергей Макаров, Артур Бичахчян, Александр Шишкин (IV), Александр Негреба, Андрей Копытов, Андрей Костюк, Александр Мынто, Аристарх Венес, Михаил Васьков, Сергей Шарифуллин, Дмитрий Дёмин, Сергей Беляев, Юрий Осипов, Полина Борунова, Михаил Асанкин, Мария Бородина (II)

Описание: События второго сезона разворачиваются в период с лета 1953-го до весны 1954-го. Советский народ победил в Великой Отечественной, но дома осталась другая война… Холодным летом 53-го война с бандитизмом будет продолжаться от Москвы до самых до окраин. С бандитами будет покончено, и враг будет разбит! Главный герой — Легавый, он же Юрий Козырев — по-прежнему работает в одном из отделений милиции города Петрово Московской области. Его жизнь была налажена и размерена до тех пор, пока в стране не началась широкомасштабная амнистия. Из лагерей вышли тысячи матерых уголовников, большинство из которых направились в столицу, пытаясь по пути «прибарахлиться» — поживиться краденым. Это значит только одно — на долю Козырева опять придется много работы.Но кроме разборок с рядовыми бандитами Юрию предстоит встретиться со старым врагом по фамилии Павливкер, которого он отправил в лагерь пять лет назад. Павливкера тоже амнистировали, восстановили в силовых структурах и назначили на ответственную должность. Теперь он пытается избавиться от Козырева с помощью служебных полномочий. Эта беспощадная война с бандитами унесет не одну жизнь, беда придет и в дом Козырева. После гибели жены Полины ему придется одному воспитывать приемного сына...

Качество: DVB
Формат: MPEG
Видео кодек: AVC
Аудио кодек: MP2
Видео: MPEG-4 AVC, (1022x576),2800 Кбит/с, 25.000кадра/сек
Аудио#1: MP 2, 2 ch,192 kbps (Rus) 48.0 KHzОригинал
скриншот   скриншот   скриншот  

Тип потока: Видео
Длительность: 00:44:06
Кодек: AVC
Кодек/описание: Advanced Video Codec
Кодек/профиль: Main@L3.1
Кодек/ID: 27
Кодек/CABAC: Yes
Кодек/ReFrames: 3 frames
Размеры изображения: 1022 x 576 (16:9)
Частота кадров: 25.000 fps
Размер потока: 832 MiB (89%)
Битрейт: 2 600 Kbps
Битрейт/тип: CBR
Стандарт: PAL
Цветовое пространство: YUV
Тип развёртки: Progressive
Колориметрия: 4:2:0
Глубина: 8 bits
:
Тип потока: Звук #1
Язык: RUS
Длительность: 00:44:06.480
Кодек: MPEG Audio
Кодек/профиль: Layer 2
Кодек/ID: 3
Частота дискретизации: 48.0 KHz
Каналов: 2 channels
Битрейт: 192 Kbps
Битрейт/тип: Constant
Размер потока: 60.6 MiB (6%)
Метод сжатия: Lossy

pb.wtf



Скачать Легавый через торрент http://pic.kartinco.top/images/8/s13ka.jpg Скачать фильм Легавый через торрент бесплантно в хорошем качестве Описание: События второго сезона разворачиваются в период с лета 1953-го до весны 1954-го. Советский народ победил в Великой Отечественной, ... 9.6 10 13
Info! Золотая раздача, скачанное не засчитывается.
Торрент: Зарегистрирован [2014-11-25 12:10] · скачан: 119 раз
Статус: √ проверено
Размер: 28.88 GB
Как cкачать? Как скачать Легавый через торрент | qTorrent

% Раздел Тема Автор DL S | L
Наши сериалы [ 40.79 GB ] Легавый [2012 DVB] Оригинал Бумер Скачать
1 | 0
Фильмы [HD 720p, 1080p] (Хороший звук DUB, MVO) [ 7.76 GB ] Типа крутые легавые / Hot Fuzz [ 2007 BDRip 1080р] + Оригинал Бумер Скачать
1 | 0

28-11-2019 20:33  

Отключить всю рекламу на сайте

25-11-2014 12:12 Легавый Скачать торрент  

залил в DVB качестве
благодарим за релизpb.wtf



04-12-2014 09:13 Легавый Скачать торрент  

Качество супер...и сериал неплохой.....Актёры молодцы..хотя Домогаров переигрываетpb.wtf



04-12-2014 09:14 Легавый Скачать торрент  

ломился наверное и сюда Домогаров с (рощи()....pb.wtf



    Дорогой пользователь! Огромная просьба, поблагодарите релизера, оцените раздачу и оставьте свои комментарий, если Вы скачали Легавый через торрент бесплатно! Внесите свою лепту в развитие PiratBit!
    Комментировать посты могут только пользователи прошедшие не сложную регистрацию
    Показать сообщения:    

    Легавый через торрент
    Скачать бесплатно Легавый
    Легавый скачать торрент
    Легавый смотреть онлайн
    Cкачать фильм Легавый бесплатно
    Легавый скачать торрент в хорошем качестве
    Легавый смотреть онлайн бесплатно в хорошем качестве


    Вы не можете начинать темы
    Вы не можете отвечать на сообщения
    Вы не можете редактировать свои сообщения
    Вы не можете удалять свои сообщения
    Вы не можете голосовать в опросах
    Вы не можете прикреплять файлы к сообщениям
    Вы можете скачивать файлы