Ссылка на приватное зеркало нашего сайта всего за 1$. Внимание количество ограничено!!!

2 сезон

iTunes

1 сезон

1

iTunes

iTunes

iTunes

1 сезон

RePack

30

ИГРА 18+

pack

ВАЖНО

!!Акция!!

Alien_RageХит недели

RePack

MK11
pack

Забери бонус

RePack

jed

!!Акция!!

Alien_Rage

RePack

fifa19

RePack

Assassins Creed: Odyssey

RePack

NEED FOR SPEED™ PAYBACK

4 сезон

9 сезон

Бесстыжие 9 сезон

Все сериалы

все сериалы на PB.wtf

RePack

FAR CRY 5
  

Шугарлендский экспресс / The Sugarland express (Стивен Спилберг) [1974, драма, комедия, криминал, приключения, BDRip 1080p] MVO pb.wtf

Шугарлендский экспресс через торрент pb.wtf

Размер: 12.52 GB | Добавлен: 5 лет 11 мес. назад | Торрент скачан:16 раз
Скачать  

26-11-2014 07:22 Шугарлендский экспресс Скачать торрент  

Шугарлендский экспресс / The Sugarland express

Год выпуска: 1974
Страна: США
Жанр: драма, комедия, криминал, приключения
Продолжительность: 01:49:52
Перевод: профессиональный многоголосый
Субтитры: русские, английские (для слабослышащих)

Режиссёр: Стивен Спилберг

В ролях: Голди Хоун, Бен Джонсон, Майкл Сакс, Уильям Этертон, Грегори Уэлкотт, Стив Кэнэли, Луиз Лэтэм, Харрисон Занук, А.Л. Кэмп, Джесси Ли Фултон, Дин Смит, Тед Гроссман, Билл Турман, Кеннет Хаджинс, Бастер Дэниелс, Джеймс Н. Харрелл, Гуч Кук, Джин Рейдер, Руди Роббинс, Ричард Брайт

Описание: Молодая супружеская пара с криминальным прошлым переживает более серьёзную, чем тюремное заключение, трагедию: по приговору суда их маленький ребёнок должен быть отдан в чужую семью. И тогда жена уговаривает на побег из тюрьмы мужа. Они вдвоём угоняют полицейскую машину, взяв в заложники блюстителя закона, после чего отправляются в путь по дорогам Техаса, сопровождаемые караваном полицейских автомобилей. Они мчатся, не зная, что ждёт их впереди...Фильм основан на подлинных событиях, случившихся в Техасе в 1969 году.



Качество: BDRip 1080p Сравнение с исходником
Формат: MKV
Видео кодек: H.264
Аудио кодек: DTS
Видео: 1920x916, 14 Mbps, 23.976 кадра/с, 0.374 bpp
Аудио 1: русский, DTS, 447 kbps, 2 ch, 48 kHz [профессиональный многоголосый]
Аудио 2: английский, DTS, 1509 kbps, 2 ch, 48 kHz [оригинал]

Имеются неименованные главы/чаптеры.

Автор рипа msltel
Каннский кинофестиваль, 1974 год
Победитель (1):
Лучший сценарий

Номинации (1):
Золотая пальмовая ветвь
Общее
Уникальный идентификатор : 184730578942772730266557653713767858954 (0x8AF9D0BBA0F62EBB8AE781A192F7830A)
Полное имя : D:VideoShugarlendskij express.1974.BDRip.1080p.mkv
Формат : Matroska
Версия формата : Version 4 / Version 2
Размер файла : 12,5 Гбайт
Продолжительность : 1 ч. 49 м.
Общий поток : 16,3 Мбит/сек
Дата кодирования : UTC 2014-11-26 03:16:56
Программа кодирования : mkvmerge v7.3.0 ('Nouages') 64bit built on Oct 22 2014 18:53:34
Библиотека кодирования : libebml v1.3.0 + libmatroska v1.4.1
_STATISTICS_WRITING_APP : mkvmerge v7.3.0 ('Nouages') 64bit built on Oct 22 2014 18:53:34
_STATISTICS_WRITING_DATE_UTC : 2014-11-26 03:16:56
_STATISTICS_TAGS : BPS DURATION NUMBER_OF_FRAMES NUMBER_OF_BYTES
DURATION : 01:49:52.427000000
NUMBER_OF_FRAMES : 618040
NUMBER_OF_BYTES : 1243496868

Видео
Идентификатор : 1
Формат : AVC
Формат/Информация : Advanced Video Codec
Профиль формата : High@L4.1
Параметр CABAC формата : Да
Параметр ReFrames формата : 4 кадра
Идентификатор кодека : V_MPEG4/ISO/AVC
Продолжительность : 1 ч. 49 м.
Битрейт : 14,0 Мбит/сек
Ширина : 1920 пикселей
Высота : 816 пикселей
Соотношение сторон : 2,35:1
Режим частоты кадров : Постоянный
Частота кадров : 23,976 кадра/сек
Цветовое пространство : YUV
Субдискретизация насыщенности : 4:2:0
Битовая глубина : 8 бит
Тип развёртки : Прогрессивная
Бит/(Пиксели*Кадры) : 0.374
Размер потока : 10,8 Гбайт (86%)
Заголовок : BDRip -- STarankov
Библиотека кодирования : x264 core 142 r2431 ac76440
Настройки программы : cabac=1 / ref=4 / deblock=1:-1:-1 / analyse=0x3:0x113 / me=umh / subme=10 / psy=1 / psy_rd=1.00:0.15 / mixed_ref=1 / me_range=32 / chroma_me=1 / trellis=2 / 8x8dct=1 / cqm=0 / deadzone=21,11 / fast_pskip=1 / chroma_qp_offset=-3 / threads=6 / lookahead_threads=1 / sliced_threads=0 / nr=0 / decimate=1 / interlaced=0 / bluray_compat=0 / constrained_intra=0 / bframes=8 / b_pyramid=2 / b_adapt=2 / b_bias=0 / direct=3 / weightb=1 / open_gop=0 / weightp=2 / keyint=230 / keyint_min=23 / scenecut=40 / intra_refresh=0 / rc_lookahead=40 / rc=crf / mbtree=0 / crf=20.0 / qcomp=0.60 / qpmin=0 / qpmax=69 / qpstep=4 / vbv_maxrate=50000 / vbv_bufsize=62500 / crf_max=0.0 / nal_hrd=none / filler=0 / ip_ratio=1.40 / pb_ratio=1.30 / aq=1:1.00
Язык : English
Default : Да
Forced : Нет
DURATION : 01:49:52.419000000
NUMBER_OF_FRAMES : 158060
NUMBER_OF_BYTES : 11827512669
_STATISTICS_WRITING_APP : mkvmerge v7.3.0 ('Nouages') 64bit built on Oct 22 2014 18:53:34
_STATISTICS_WRITING_DATE_UTC : 2014-11-26 03:16:56
_STATISTICS_TAGS : BPS DURATION NUMBER_OF_FRAMES NUMBER_OF_BYTES

Аудио #1
Идентификатор : 2
Формат : DTS
Формат/Информация : Digital Theater Systems
Режим : 16
Параметр Endianness формата : Big
Идентификатор кодека : A_DTS
Продолжительность : 1 ч. 49 м.
Вид битрейта : Постоянный
Битрейт : 447 Кбит/сек
Каналы : 2 канала
Расположение каналов : Front: L R
Частота : 48,0 КГц
Битовая глубина : 24 бит
Метод сжатия : С потерями
Размер потока : 351 Мбайт (3%)
Заголовок : MVO
Язык : Russian
Default : Да
Forced : Нет

Аудио #2
Идентификатор : 3
Формат : DTS
Формат/Информация : Digital Theater Systems
Режим : 16
Параметр Endianness формата : Big
Идентификатор кодека : A_DTS
Продолжительность : 1 ч. 49 м.
Вид битрейта : Постоянный
Битрейт : 1509 Кбит/сек
Каналы : 2 канала
Расположение каналов : Front: L R
Частота : 48,0 КГц
Битовая глубина : 24 бит
Метод сжатия : С потерями
Размер потока : 1,16 Гбайт (9%)
Заголовок : Original
Язык : English
Default : Нет
Forced : Нет

Текст #1
Идентификатор : 4
Формат : UTF-8
Идентификатор кодека : S_TEXT/UTF8
Идентификатор кодека/Информация : UTF-8 Plain Text
Заголовок : русский
Язык : Russian
Default : Нет
Forced : Нет

Текст #2
Идентификатор : 5
Формат : UTF-8
Идентификатор кодека : S_TEXT/UTF8
Идентификатор кодека/Информация : UTF-8 Plain Text
Заголовок : английский (для слабослышащих)
Default : Нет
Forced : Нет

Меню
00:00:00.000 : :Chapter 01
00:04:42.782 : :Chapter 02
00:11:51.419 : :Chapter 03
00:16:06.674 : :Chapter 04
00:22:45.614 : :Chapter 05
00:29:14.627 : :Chapter 06
00:36:26.475 : :Chapter 07
00:42:26.335 : :Chapter 08
00:47:49.658 : :Chapter 09
00:54:33.103 : :Chapter 10
01:00:29.000 : :Chapter 11
01:07:04.645 : :Chapter 12
01:15:25.395 : :Chapter 13
01:22:00.707 : :Chapter 14
01:27:29.619 : :Chapter 15
01:34:07.600 : :Chapter 16
01:39:14.990 : :Chapter 17
01:48:08.857 : :Chapter 18
01:49:52.168 : :Chapter 19
pb.wtf



Скачать Шугарлендский экспресс через торрент http://i66.fastpic.ru/big/2014/1125/67/47386ee8f8b1c7676617cffa7bb78067.jpg Скачать фильм Шугарлендский экспресс через торрент бесплантно в хорошем качестве Описание: Молодая супружеская пара с криминальным прошлым переживает более серьёзную, чем тюремное заключение, трагедию: по приговору суда ... 9.8 10 4
Торрент: Зарегистрирован [2014-11-26 07:22] · скачан: 16 раз
Статус: √ проверено
Размер: 12.52 GB
Как cкачать? Как скачать Шугарлендский экспресс через торрент | qTorrent

% Раздел Тема Автор DL S | L
Фильмы [HD 720p, 1080p] (Хороший звук DUB, MVO) [ 4.9 GB ] Шугарлендский экспресс / The Sugarland express [1974 BDRip 720p] MVO msltel Скачать
1 | 0

28-11-2019 20:33  

Отключить всю рекламу на сайте

    Дорогой пользователь! Огромная просьба, поблагодарите релизера, оцените раздачу и оставьте свои комментарий, если Вы скачали Шугарлендский экспресс через торрент бесплатно! Внесите свою лепту в развитие PiratBit!
    Комментировать посты могут только пользователи прошедшие не сложную регистрацию
    Показать сообщения:    

    Шугарлендский экспресс через торрент
    Скачать бесплатно Шугарлендский экспресс
    Шугарлендский экспресс скачать торрент
    Шугарлендский экспресс смотреть онлайн
    Cкачать фильм Шугарлендский экспресс бесплатно
    Шугарлендский экспресс скачать торрент в хорошем качестве
    Шугарлендский экспресс смотреть онлайн бесплатно в хорошем качестве


    Вы не можете начинать темы
    Вы не можете отвечать на сообщения
    Вы не можете редактировать свои сообщения
    Вы не можете удалять свои сообщения
    Вы не можете голосовать в опросах
    Вы не можете прикреплять файлы к сообщениям
    Вы можете скачивать файлы