Ссылка на приватное зеркало нашего сайта всего за 1$. Внимание количество ограничено!!!

2 сезон

iTunes

1 сезон

1

2 сезон

2 сезон

iTunes

1 сезон

RePack

30

Ultimate

ВАЖНО

ИГРА 18+

pack

RePack

MK11
pack

Забери бонус

RePack

jed

!!Акция!!

Alien_Rage

RePack

fifa19

RePack

Assassins Creed: Odyssey

RePack

NEED FOR SPEED™ PAYBACK

4 сезон

9 сезон

Бесстыжие 9 сезон

Все сериалы

все сериалы на PB.wtf

RePack

FAR CRY 5
  

Анника / Annika Bengtzon / Сезон: 1 / Эпизод 1-6 (6) [2012 г., триллер, драма, криминал, детектив, HDRip 400p] MVO (Now.ru) + Original pb.wtf

Анника через торрент pb.wtf

Размер: 9.15 GB | Добавлен: 6 лет назад | Торрент скачан:23 раза
Скачать  

26-11-2014 08:58 Анника Скачать торрент  

Анника / Annika Bengtzon
Год выпуска: 2012
Страна: Швеция
Жанр: триллер, драма, криминал, детектив
Продолжительность: 01:29:00
Перевод: Профессиональный многоголосый (Now.ru)
Режиссер: Петер Флинт



В ролях: Малин Крепин, Бьёрн Чьелльман, Лейф Андре, Кайса Эрнст, Эрик Йоханссон, Феликс Энгстрём, Ричард Ульфзэтер, Антье Трауэ, Пер Граффман, Бьёрн Гранат и др.

Описание: Во время торжественного ужина по случаю вручения Нобелевской премии репортер криминальной хроники Аника Бенгцтон становится невольным свидетелем убийства высокопоставленного чиновника. Полиция запрещает ей оглашать какие-либо подробности по делу, но репортер до мозга костей не в силах противиться журналистскому призванию. Аника начинает самостоятельное расследование, которое приводит ее к страшной разгадке.

Качество: HDRip 400p
Формат: AVI
Видео кодек: XviD
Аудио кодек: AC3
Видео: 720x400 (16:9), 24.000 fps, 2 002 Kbps (0.290 bit/pixel)
Аудио#1: 48.0 KHz, 2 ch, 192 Kbps, CBR Rus
Аудио#2: 48.0 KHz, 2 ch, 192 Kbps, CBR Eng
Доп. информация:
В первой серии видео 720x304 и озвучка: Полное дублирование (R5).
На DVD выходила только первая серия.
Автор релиза на HDClub - HPotter.
За озвучку спасибо Beer kolesik Drinkers.
Исходник: HDClub
Рип: xironfs
Общее
Полное имя : E:\Анника\Annika Bengtzon Season 1 CasStudio.TV\Annika.Bengtzon.s01e02.rus.eng.CasStudio.TV.avi
Формат : AVI
Формат/Информация : Audio Video Interleave
Размер файла : 1,56 Гбайт
Продолжительность : 1 ч. 33 м.
Общий поток : 2400 Кбит/сек
Программа кодирования : VirtualDubModRus 1.5.10.2 (build 2542/release)
Библиотека кодирования : VirtualDubMod build 2542/release

Видео
Идентификатор : 0
Формат : MPEG-4 Visual
Профиль формата : Advanced Simple@L5
Параметр BVOP формата : 1
Параметр QPel формата : Нет
Параметр GMC формата : Без точки перехода
Параметр матрицы формата : Default (MPEG)
Идентификатор кодека : XVID
Идентификатор кодека/Подсказка : XviD
Продолжительность : 1 ч. 33 м.
Битрейт : 2002 Кбит/сек
Ширина : 720 пикселей
Высота : 400 пикселей
Соотношение сторон : 16:9
Частота кадров : 24,000 кадра/сек
Цветовое пространство : YUV
Субдискретизация насыщенности : 4:2:0
Битовая глубина : 8 бит
Тип развёртки : Прогрессивная
Метод сжатия : С потерями
Бит/(Пиксели*Кадры) : 0.290
Размер потока : 1,30 Гбайт (83%)
Библиотека кодирования : XviD 65

Аудио #1
Идентификатор : 1
Формат : AC-3
Формат/Информация : Audio Coding 3
Расширение режима : CM (complete main)
Параметр Endianness формата : Big
Идентификатор кодека : 2000
Продолжительность : 1 ч. 33 м.
Вид битрейта : Постоянный
Битрейт : 192 Кбит/сек
Каналы : 2 канала
Расположение каналов : Front: L R
Частота : 48,0 КГц
Битовая глубина : 16 бит
Метод сжатия : С потерями
Размер потока : 128 Мбайт (8%)
Выравнивание : Разделение по промежуткам
Продолжительность промежутка : 42 мс. (1,00 видеокадр)
Время предзагрузки промежутка : 500 мс.

Аудио #2
Идентификатор : 2
Формат : AC-3
Формат/Информация : Audio Coding 3
Расширение режима : CM (complete main)
Параметр Endianness формата : Big
Идентификатор кодека : 2000
Продолжительность : 1 ч. 33 м.
Вид битрейта : Постоянный
Битрейт : 192 Кбит/сек
Каналы : 2 канала
Расположение каналов : Front: L R
Частота : 48,0 КГц
Битовая глубина : 16 бит
Метод сжатия : С потерями
Размер потока : 128 Мбайт (8%)
Выравнивание : Разделение по промежуткам
Продолжительность промежутка : 42 мс. (1,00 видеокадр)
Время предзагрузки промежутка : 500 мс.
Общее
Полное имя : E:\Анника\Annika Bengtzon Season 1 CasStudio.TV\Annika.Bengtzon.s01e01.rus.eng.CasStudio.TV.avi
Формат : AVI
Формат/Информация : Audio Video Interleave
Размер файла : 1,55 Гбайт
Продолжительность : 1 ч. 32 м.
Общий поток : 2401 Кбит/сек
Программа кодирования : VirtualDubModRus 1.5.10.2 (build 2542/release)
Библиотека кодирования : VirtualDubMod build 2542/release

Видео
Идентификатор : 0
Формат : MPEG-4 Visual
Профиль формата : Advanced Simple@L5
Параметр BVOP формата : 1
Параметр QPel формата : Нет
Параметр GMC формата : Без точки перехода
Параметр матрицы формата : Default (MPEG)
Идентификатор кодека : XVID
Идентификатор кодека/Подсказка : XviD
Продолжительность : 1 ч. 32 м.
Битрейт : 2003 Кбит/сек
Ширина : 720 пикселей
Высота : 304 пикселя
Соотношение сторон : 2,35:1
Частота кадров : 24,000 кадра/сек
Цветовое пространство : YUV
Субдискретизация насыщенности : 4:2:0
Битовая глубина : 8 бит
Тип развёртки : Прогрессивная
Метод сжатия : С потерями
Бит/(Пиксели*Кадры) : 0.381
Размер потока : 1,30 Гбайт (83%)
Библиотека кодирования : XviD 65

Аудио #1
Идентификатор : 1
Формат : AC-3
Формат/Информация : Audio Coding 3
Расширение режима : CM (complete main)
Параметр Endianness формата : Big
Идентификатор кодека : 2000
Продолжительность : 1 ч. 32 м.
Вид битрейта : Постоянный
Битрейт : 192 Кбит/сек
Каналы : 2 канала
Расположение каналов : Front: L R
Частота : 48,0 КГц
Битовая глубина : 16 бит
Метод сжатия : С потерями
Размер потока : 127 Мбайт (8%)
Выравнивание : Разделение по промежуткам
Продолжительность промежутка : 42 мс. (1,00 видеокадр)
Время предзагрузки промежутка : 500 мс.

Аудио #2
Идентификатор : 2
Формат : AC-3
Формат/Информация : Audio Coding 3
Расширение режима : CM (complete main)
Параметр Endianness формата : Big
Идентификатор кодека : 2000
Продолжительность : 1 ч. 32 м.
Вид битрейта : Постоянный
Битрейт : 192 Кбит/сек
Каналы : 2 канала
Расположение каналов : Front: L R
Частота : 48,0 КГц
Битовая глубина : 16 бит
Метод сжатия : С потерями
Размер потока : 127 Мбайт (8%)
Выравнивание : Разделение по промежуткам
Продолжительность промежутка : 42 мс. (1,00 видеокадр)
Время предзагрузки промежутка : 500 мс.


Анника скачать торрент


pb.wtf



Скачать Анника через торрент http://pic.kartinco.top/images/8/nb8fk.jpg Скачать фильм Анника через торрент бесплантно в хорошем качестве Описание: Во время торжественного ужина по случаю вручения Нобелевской премии репортер криминальной хроники Аника Бенгцтон становится ... 10 10 4
Торрент: Зарегистрирован [2014-11-26 08:58] · скачан: 23 раз
Статус: √ проверено
Размер: 9.15 GB
Как cкачать? Как скачать Анника через торрент | qTorrent



Последний раз редактировалось: Assasinca (2014-11-27 09:24), всего редактировалось 1 раз

28-11-2019 20:33  

Отключить всю рекламу на сайте

26-11-2014 18:16 Анника Скачать торрент  

Спасибо, посмотрим ))))pb.wtf



27-11-2014 08:48 Анника Скачать торрент  

Цитата:

Доп. информация: ...

это бы под тех.данные сдвинуть :)





Кнопочку касса повесьте пожалуйста :)

Код:

http://i60.fastpic.ru/big/2013/0930/9e/85be53b393f4db2675f7fada69d80f9e.png

pb.wtf



    Дорогой пользователь! Огромная просьба, поблагодарите релизера, оцените раздачу и оставьте свои комментарий, если Вы скачали Анника через торрент бесплатно! Внесите свою лепту в развитие PiratBit!
    Комментировать посты могут только пользователи прошедшие не сложную регистрацию
    Показать сообщения:    

    Анника через торрент
    Скачать бесплатно Анника
    Анника скачать торрент
    Анника смотреть онлайн
    Cкачать фильм Анника бесплатно
    Анника скачать торрент в хорошем качестве
    Анника смотреть онлайн бесплатно в хорошем качестве


    Вы не можете начинать темы
    Вы не можете отвечать на сообщения
    Вы не можете редактировать свои сообщения
    Вы не можете удалять свои сообщения
    Вы не можете голосовать в опросах
    Вы не можете прикреплять файлы к сообщениям
    Вы можете скачивать файлы