2 сезон

iTunes

MVO

1

2 сезон

iTunes

iTunes

1 сезон

RePack

30

Новинка

ВАЖНО

ИГРА 18+

pack

RePack

MK11
pack

Легкие деньги

RePack

jed

RePack

fifa19

RePack

RDR2

RePack

NEED FOR SPEED™ PAYBACK

4 сезон

9 сезон

Бесстыжие 9 сезон

Все сериалы

все сериалы на PB.wtf

RePack

FAR CRY 5

Anonymous, доброй ночи, мы не успеваем собрать деньги на оплату серверов за декабрь и январь, помогите нам пожалуйста в это трудное время. В качестве благодарности мы отключим Вам всю рекламу на сайте (укажите свой ник в строку Ваше имя)!

×
  
Magnet ссылка

Охотник на зомби / Zombie Hunter (К. Кинг) [2013 г., Фантастика, боевик, триллер, HDRip, Профессиональный многоголосый [online movies]] pb.wtf

Охотник на зомби через торрент pb.wtf

Размер: 1.37 GB | Добавлен: 6 лет 1 мес. назад | Торрент скачан:980 раз
Скачать  

26-11-2014 11:08 Охотник на зомби Скачать торрент  

Охотник на зомби / Zombie Hunter Год выпуска: 2013
Выпущено:: США, Arrowstorm Entertainment, Klimax, The
Жанр: Фантастика, боевик, триллер
Длительность: 01:32:49
Перевод: Профессиональный многоголосый [online movies]
Субтитры: Отсутствуют
Режиссер:К. Кинг
В ролях:
Мартин Коппинг, Дэнни Трехо, Клэр Нидерпрюэм, Джейд Рэгир, Джейсон К. Уиксом, Терри Гатри, Шона Кэй, Джефф Киркэм, Майкл Монастерио, Джаррод Филлипс
Описание:
Охотник-одиночка путешествует по постапокалиптическому миру, кишащему зомби. Вся его семья погибла, и теперь он мстит за них. На пути ему встречается колония поселенцев, которые с трудом сдерживают атаки мутантов. Он — их последняя надежда в этом мире. Но согласится ли одиночка объединить усилия?

Качество: HDRip
Формат: AVI
Видео кодек: XviD
Аудио кодек:Русский-AC3
Видео: 720x304, 1908 kbps, 23,976 fps, 0.363
Аудио#1: Русский / 2 ch / 48 kHz / 192 kbps / 16 bit








Общее
Полное имя : D:\uTorrent\Ohotnik.na.zombi.2013.P.HDRip.avi
Формат : AVI
Формат/Информация : Audio Video Interleave
Размер файла : 1,37 Гбайт
Продолжительность : 1 ч. 32 м.
Общий поток : 2109 Кбит/сек
Программа кодирования : VirtualDubMod 1.5.10.2 (build 2540/release)
Библиотека кодирования : VirtualDubMod build 2540/release

Видео
Идентификатор : 0
Формат : MPEG-4 Visual
Профиль формата : Advanced Simple@L5
Параметр BVOP формата : 2
Параметр QPel формата : Нет
Параметр GMC формата : Без точки перехода
Параметр матрицы формата : Default (MPEG)
Идентификатор кодека : XVID
Идентификатор кодека/Подсказка : XviD
Продолжительность : 1 ч. 32 м.
Битрейт : 1908 Кбит/сек
Ширина : 720 пикселей
Высота : 304 пикселя
Соотношение сторон : 2,35:1
Частота кадров : 23,976 кадра/сек
Цветовое пространство : YUV
Субдискретизация насыщенности : 4:2:0
Битовая глубина : 8 бит
Тип развёртки : Прогрессивная
Метод сжатия : С потерями
Бит/(Пиксели*Кадры) : 0.363
Размер потока : 1,24 Гбайт (90%)
Библиотека кодирования : XviD 1.2.1 (UTC 2008-12-04)

Аудио
Идентификатор : 1
Формат : AC-3
Формат/Информация : Audio Coding 3
Расширение режима : CM (complete main)
Параметр Endianness формата : Big
Идентификатор кодека : 2000
Продолжительность : 1 ч. 32 м.
Вид битрейта : Постоянный
Битрейт : 192 Кбит/сек
Каналы : 2 канала
Расположение каналов : Front: L R
Частота : 48,0 КГц
Битовая глубина : 16 бит
Метод сжатия : С потерями
Размер потока : 127 Мбайт (9%)
Выравнивание : Разделение по промежуткам
Продолжительность промежутка : 42 мс. (1,00 видеокадр)
Время предзагрузки промежутка : 500 мс.

Приятного просмотра! Не забывайте говорить спасибо!!!
pb.wtf



Скачать Охотник на зомби через торрент http://i6.imageban.ru/out/2014/01/06/ffbfff8e185ffc85c8481bf5a7fca633.png Скачать фильм Охотник на зомби через торрент бесплантно в хорошем качестве Описание: Охотник-одиночка путешествует по постапокалиптическому миру, кишащему зомби. Вся его семья погибла, и теперь он мстит за них. На ... 9.2 10 37
Торрент: Зарегистрирован [2014-11-26 11:08] · скачан: 980 раз
Статус: √ проверено
Размер: 1.37 GB
Как cкачать? Как скачать Охотник на зомби через торрент | UTorrent

% Раздел Тема Автор DL S | L
Фильмы 2013 [DVDrip, WEB-DLRip, HDrip] [ 1.45 GB ] Охотник на зомби / Zombie Hunter [2013 HDRip-AVC] [MVO] [НТВ Lithuania Скачать
1 | 0
Фильмы [HD 720p, 1080p] (Хороший звук DUB, MVO) [ 7.55 GB ] Охотник на зомби / Zombie Hunter [2013 BDRip 1080p] MVO [НТВ bober100 Скачать
1 | 0

28-11-2019 20:33  

Отключить всю рекламу на сайте

26-11-2014 11:09 Охотник на зомби Скачать торрент  

Кому интересно могу через часик-другой выложить в BDRip 720p!!! Отпишитесь в коментариях!!!pb.wtf



26-11-2014 11:38 Охотник на зомби Скачать торрент  

Очередной шлакpb.wtf



26-11-2014 11:50 Охотник на зомби Скачать торрент  

vampir2011 писал(а):

Очередной шлак

На вкус и цвет как говорят! Автор спасибо!pb.wtf



26-11-2014 12:29 Охотник на зомби Скачать торрент  

=lina= писал(а):

vampir2011 писал(а):

Очередной шлак

На вкус и цвет как говорят! Автор спасибо!

на вкус и цвет эта фигня всегда будет шлакомpb.wtf



26-11-2014 12:33 Охотник на зомби Скачать торрент  

Обожаю трешаки с участием Денни Трэхо :shoot2:pb.wtf



26-11-2014 15:50 Охотник на зомби Скачать торрент  

"...Вся его семья погибла, и теперь он мстит за них"- мстит кому!?Безмозглым зомби ? )))pb.wtf



26-11-2014 16:16 Охотник на зомби Скачать торрент  

скачаю глянуpb.wtf



26-11-2014 16:52 Охотник на зомби Скачать торрент  

_Fenixx_, скидывай конечно! добротный трешак под настроение в добротной компании идёт на ура!pb.wtf



26-11-2014 18:20 Охотник на зомби Скачать торрент  

Семпл от Люси, автор поправь.pb.wtf



26-11-2014 20:11 Охотник на зомби Скачать торрент  

что то Дэнни Трехо начинает раздражать своими дно-боевиками,кто их смотрит не поймуpb.wtf



27-11-2014 04:00 Охотник на зомби Скачать торрент  

как низко пал Трэхоpb.wtf



27-11-2014 16:01 Охотник на зомби Скачать торрент  

:jest3:pb.wtf



    Дорогой пользователь! Огромная просьба, поблагодарите релизера, оцените раздачу и оставьте свои комментарий, если Вы скачали Охотник на зомби через торрент бесплатно! Внесите свою лепту в развитие PiratBit!
    Комментировать посты могут только пользователи прошедшие не сложную регистрацию
    Показать сообщения:    

    Охотник на зомби через торрент
    Скачать бесплатно Охотник на зомби
    Охотник на зомби скачать торрент
    Охотник на зомби смотреть онлайн
    Cкачать фильм Охотник на зомби бесплатно
    Охотник на зомби скачать торрент в хорошем качестве
    Охотник на зомби смотреть онлайн бесплатно в хорошем качестве


    Вы не можете начинать темы
    Вы не можете отвечать на сообщения
    Вы не можете редактировать свои сообщения
    Вы не можете удалять свои сообщения
    Вы не можете голосовать в опросах
    Вы не можете прикреплять файлы к сообщениям
    Вы можете скачивать файлы