MEGA NEWS Получи личный уникальный адрес сайта и защити себя от блокировок. Внимание количество ограничено!!!

iTunes

1+1

iTunes

мы

iTunes

1

iTunes

Чернобыль

iTunes

Ральф против интернета

Лицензия

ПШазам

Лицензия

Игра престолов

Лицензия

30
pack

ВАЖНО

!!Акция!!

Alien_RageХит недели

RePack

Resident Evil 21

ИГРА 18+

pack

RePack

Metro:Exodus

!!Акция!!

Alien_Rage

RePack

fifa19

RePack

Assassins Creed: Odyssey

RePack

NEED FOR SPEED™ PAYBACK

3 сезон

9 сезон

Бесстыжие 9 сезон

Все сериалы

все сериалы на PB.wtf

RePack

FAR CRY 5
Ребята, катастрофически не хватает 1900р. для оплаты серверов за АВГУСТ (всвязи с блокировками трафик упал в 3 раза), 1-2р., выручайте.
  

Долговязый Джон Сильвер / Long John Silver (Long John Silver's Return to Treasure Island) (Байрон Хэскин) [1954 г., Приключения, DVDRip, Профессиональный многоголосый, Лицензия] pb.wtf

Долговязый Джон Сильвер через торрент pb.wtf

Размер: 1.47 GB | Добавлен: 4 года 10 мес. назад | Торрент скачан:17 раз
Скачать  

26-11-2014 20:09 Долговязый Джон Сильвер Скачать торрент  

Долговязый Джон Сильвер / Long John Silver (Long John Silver's Return to Treasure Island)
Год выпуска: 1954
Страна: Австралия
Жанр: Приключения
Продолжительность: 01:41:30
Перевод: Профессиональный многоголосый
Субтитры: Русские

Режиссер: Байрон Хэскин

В ролях: Роберт Ньютон, Конни Гилкрайст, Ллойд Беррелл, Кит Тейлор, Конни Гилхрист, Грант Тейлор, Род Тейлор, Харви Эдамс, Мюриэль Штейнбек, Генри Гилберт, Джон Брунскил, Эрик Рейман

Описание: Действие фильма происходит, примерно, год спустя после событий изложенных в фильме "Остров Сокровищ" 1950 г., который заканчивается тем, что Сильвер в корабельной шлюпке уплывает с Острова Сокровищ в сторону Ямайки. Видно по причине отсутствия компаса и прочих навигационных принадлежностей, которыми Сильвер всё равно пользоваться не умел. Сильвер сбился с курса и попал не на Ямайку, а в городок Порто-Белло, где пристроился в приживалы к некой мадам Пинкер - хозяйке трактира. В этом трактире Сильвер, в окружении новой шайки пиратов, коротает дни и ночи за стаканчиком рому. Между делом он помышляет вернуться на Остров Сокровищ и прикарманить оставшиеся сокровища. Но в один прекрасный вечер, размеренный уклад жизни Сильвера был нарушен известием о том, что кровожадный пират Мендоза напал, неподалёку от Порто-Белло, на бриг "Надежда Бристоля" и захватил в заложники дочку тамошнего губернатора, а заодно, прихватил корабельного юнгу, некоего Джима Хокинса.

Качество: DVDRip
Формат: AVI
Видео кодек: XviD
Аудио кодек: MP3
Видео: 704x272 (242:85) 25fps 1805kbps
Аудио#1: MP3, 48000Hz, stereo 128kbps











General
Complete name : H:\КЛАССИКА США\Долговязый Джон Сильвер (1954)\Dolgoviaziy_Dgon_Silver.avi
Format : AVI
Format/Info : Audio Video Interleave
File size : 1.47 GiB
Duration : 1h 41mn
Overall bit rate : 2 076 Kbps
Writing application : VirtualDubMod 1.5.10.2 (build 2540/release)
Writing library : VirtualDubMod build 2540/release

Video
ID : 0
Format : MPEG-4 Visual
Format profile : Advanced Simple@L5
Format settings, BVOP : Yes
Format settings, QPel : No
Format settings, GMC : No warppoints
Format settings, Matrix : Default (MPEG)
Codec ID : XVID
Codec ID/Hint : XviD
Duration : 1h 41mn
Bit rate : 1 806 Kbps
Width : 704 pixels
Height : 272 pixels
Display aspect ratio : 2.847
Frame rate : 25.000 fps
Color space : YUV
Chroma subsampling : 4:2:0
Bit depth : 8 bits
Scan type : Progressive
Compression mode : Lossy
Bits/(Pixel*Frame) : 0.377
Stream size : 1.28 GiB (87%)
Writing library : XviD 1.2.0.dev47 (UTC 2006-11-01)

Audio #1
ID : 1
Format : MPEG Audio
Format version : Version 1
Format profile : Layer 3
Mode : Joint stereo
Codec ID : 55
Codec ID/Hint : MP3
Duration : 1h 41mn
Bit rate mode : Constant
Bit rate : 128 Kbps
Channel(s) : 2 channels
Sampling rate : 48.0 KHz
Compression mode : Lossy
Stream size : 92.5 MiB (6%)
Alignment : Aligned on interleaves
Interleave, duration : 40 ms (1.00 video frame)
Interleave, preload duration : 504 ms

Первая часть здесь Остров Сокровищ / Treasure Island pb.wtf



Скачать Долговязый Джон Сильвер через торрент http://i63.fastpic.ru/big/2014/1126/b0/086bfae0ceaf83ad7adf1bedf3b00bb0.jpg Скачать фильм Долговязый Джон Сильвер через торрент бесплантно в хорошем качестве Описание: Действие фильма происходит, примерно, год спустя после событий изложенных в фильме "Остров Сокровищ" 1950 г., который ... 10 10 2
Info! Золотая раздача, скачанное не засчитывается.
Торрент: Зарегистрирован [2014-11-26 20:09] · скачан: 17 раз
Статус: √ проверено
Размер: 1.47 GB
Как cкачать? Как скачать Долговязый Джон Сильвер через торрент | qTorrent


>> Регистрируемся здесь <<






Отзывы и комментарии о схеме читаем и пишем здесь: ---> Отзывы и комментарии о схеме

Новые благодарочки в телеграм довольных пользователей:
скриншот   скриншот   скриншот   скриншот   скриншот
    Дорогой пользователь! Огромная просьба, поблагодарите релизера, оцените раздачу и оставьте свои комментарий, если Вы скачали Долговязый Джон Сильвер через торрент бесплатно! Внесите свою лепту в развитие PiratBit!
    Комментировать посты могут только пользователи прошедшие не сложную регистрацию
    Показать сообщения:    

    Долговязый Джон Сильвер через торрент
    Скачать бесплатно Долговязый Джон Сильвер
    Долговязый Джон Сильвер скачать торрент
    Долговязый Джон Сильвер смотреть онлайн
    Cкачать фильм Долговязый Джон Сильвер бесплатно
    Долговязый Джон Сильвер скачать торрент в хорошем качестве
    Долговязый Джон Сильвер смотреть онлайн бесплатно в хорошем качестве


    Вы не можете начинать темы
    Вы не можете отвечать на сообщения
    Вы не можете редактировать свои сообщения
    Вы не можете удалять свои сообщения
    Вы не можете голосовать в опросах
    Вы не можете прикреплять файлы к сообщениям
    Вы можете скачивать файлы