Доктор Стрэндж

Лицензия

Добыча

Дубляж

Дом дракона

1 сезон

Тор

Дубляж

В эфире

Дубляж

Там, где раки поют

MVO

Властелин колец

1 сезон

Deluxe

pack

Рекомендуем

30

Пиратка

ВАЖНО

ВАЖНО

Ghostwire

Пиратка

jed

RePack

nioh2

RePack

RDR2

RePack

NEED FOR SPEED™ PAYBACK

RePack

скачать торрент

Кинопоиск HD

Острые козырьки 6 сезон

6 сезон

FAR CRY 6

RePack

скачать торрент

Лицензия

скачать торрент

MVO

1

1 сезон

скачать торрент

1 сезон

скачать торрент

Лицензия

  

История дельфина 2 / Dolphin Tale 2 (Чарльз Мартин Смит / Charles Martin Smith) [2014, США, драма, семейный, HDRip, Дубляж - Лицензия / iTunes]

История дельфина 2 через торрент pb.wtf

Размер: 2.05 GB | Добавлен: 8 лет назад | Торрент скачан:586 раз
Смотреть онлайн | Скачать   

26-11-2014 20:55 История дельфина 2 Скачать торрент  

История дельфина 2 / Dolphin Tale 2«В удивительной истории Уинтер появилась надежда»
Год выпуска: 2014
Страна: США
Жанр: драма, семейный
Продолжительность: 01:47:14
Перевод: Дубляж - [Лицензия / iTunes]
Субтитры: Отсутствует
Режиссер: Чарльз Мартин Смит / Charles Martin Smith
В ролях:


Морган Фриман (Dr. Cameron McCarthy), Эшли Джадд (Lorraine Nelson), Гарри Конник мл. (Dr. Clay Haskett), Крис Кристофферсон (Reed Haskett), Нэйтан Гэмбл (Sawyer Nelson), Джулия Винтер (Peyton), Кози Цуельсдорфф (Hazel Haskett), Остин Стоуэлл (Kyle Connellan), Джулиана Харкви (Rebecca), Остин Хигсмит (Phoebe), Карлос Гомес (Dr. Aslan), Том Ноуики (Phillip J Hordern)

Описание:
Прошло несколько лет после событий, описываемых в первом фильме. Суррогатная мать Уинтер, старая дельфиниха по имени Панама, скончалась. В итоге Уинтер осталась одна, а по законам Министерства сельского хозяйства США дельфинов нельзя содержать по одному. Чтобы Уинтер не перевезли в другой аквариум, команде морского госпиталя придется найти ей компаньона...

Рейтинг:
Бюджет:$36 000 000
MPAA: PG - Рекомендуется присутствие родителей
Качество: HDRip
Формат: AVI
Видео кодек:XviD
Аудио кодек:AC3
Видео: XviD, 720x400 (16:9), 1958 kbps, 23,976 fps, 0,284 bpp
Аудио №1: AC3 / 5.1 / 48 kHz / 384 kbps / 16 bit - Дубляж - [Лицензия / iTunes]
Аудио №2: AC3 / 5.1 / 48 kHz / 384 kbps / 16 bit - (оригинал)


General
Complete name : D:\Users\_KaisiK_\uTorrent\КИНО\Dolphin.Tale.2.2014.D.HDRip.2100MB.avi
Format : AVI
Format/Info : Audio Video Interleave
File size : 2.05 GiB
Duration : 1h 47mn
Overall bit rate : 2 741 Kbps
Writing application : VirtualDubMod 1.5.10.2 (build 2540/release)
Writing library : VirtualDubMod build 2540/release

Video
ID : 0
Format : MPEG-4 Visual
Format profile : Advanced [email protected]
Format settings, BVOP : 2
Format settings, QPel : No
Format settings, GMC : No warppoints
Format settings, Matrix : Default (MPEG)
Codec ID : XVID
Codec ID/Hint : XviD
Duration : 1h 47mn
Bit rate : 1 959 Kbps
Width : 720 pixels
Height : 400 pixels
Display aspect ratio : 16:9
Frame rate : 23.976 fps
Color space : YUV
Chroma subsampling : 4:2:0
Bit depth : 8 bits
Scan type : Progressive
Compression mode : Lossy
Bits/(Pixel*Frame) : 0.284
Stream size : 1.47 GiB (71%)
Writing library : XviD 1.2.1 (UTC 2008-12-04)

Audio #1
ID : 1
Format : AC-3
Format/Info : Audio Coding 3
Mode extension : CM (complete main)
Codec ID : 2000
Duration : 1h 47mn
Bit rate mode : Constant
Bit rate : 384 Kbps
Channel(s) : 6 channels
Channel positions : Front: L C R, Side: L R, LFE
Sampling rate : 48.0 KHz
Bit depth : 16 bits
Compression mode : Lossy
Stream size : 294 MiB (14%)
Alignment : Split accross interleaves
Interleave, duration : 42 ms (1.00 video frame)
Interleave, preload duration : 500 ms

Audio #2
ID : 2
Format : AC-3
Format/Info : Audio Coding 3
Mode extension : CM (complete main)
Codec ID : 2000
Duration : 1h 47mn
Bit rate mode : Constant
Bit rate : 384 Kbps
Channel(s) : 6 channels
Channel positions : Front: L C R, Side: L R, LFE
Sampling rate : 48.0 KHz
Bit depth : 16 bits
Compression mode : Lossy
Stream size : 295 MiB (14%)
Alignment : Split accross interleaves
Interleave, duration : 42 ms (1.00 video frame)
Interleave, preload duration : 500 ms

[/code]



Скачать История дельфина 2 через торрент http://i66.fastpic.ru/big/2014/1126/50/411ed6187ec349d17d3af09390c9a250.png Скачать, смотреть онлайн История дельфина 2 бесплантно в хорошем качестве Описание: Прошло несколько лет после событий, описываемых в первом фильме. Суррогатная мать Уинтер, старая дельфиниха по имени Панама, ... 8.1 10 14
Торрент: Зарегистрирован [2014-11-26 20:55] · скачан: 586 раз
Статус: √ проверено
Размер: 2.05 GB
Как cкачать? Как скачать История дельфина 2 через торрент | UTorrent

% Раздел Тема Автор DL S | L
Фильмы [HD 720p, 1080p] (Хороший звук DUB, MVO) [ 14.91 GB ] История дельфина 2 / Dolphin Tale 2 | Лицензия | 1080p, Dub, Лицензия Seedtank Скачать
1 | 1



Последний раз редактировалось: _KaisiK_ (2014-12-23 11:43), всего редактировалось 1 раз

28-11-2019 20:33  


Отключить вcю реклaмy на сайте, в т.ч. и в плеере онлайн просмотра!

27-11-2014 11:52 История дельфина 2 Скачать торрент  

Третий скрин просто бомба хахахах



    Дорогой пользователь! Огромная просьба, поблагодарите релизера, оцените раздачу и оставьте свои комментарий, если Вы скачали История дельфина 2 через торрент бесплатно!!
    Комментировать посты могут только пользователи прошедшие не сложную регистрацию
    Показать сообщения:    


    История дельфина 2 через торрент
    Скачать бесплатно История дельфина 2
    История дельфина 2 скачать торрент
    История дельфина 2 смотреть онлайн
    Cкачать фильм История дельфина 2 бесплатно
    История дельфина 2 скачать торрент в хорошем качестве
    История дельфина 2 смотреть онлайн бесплатно в хорошем качестве
    Вы не можете начинать темы
    Вы не можете отвечать на сообщения
    Вы не можете редактировать свои сообщения
    Вы не можете удалять свои сообщения
    Вы не можете голосовать в опросах
    Вы не можете прикреплять файлы к сообщениям
    Вы можете скачивать файлы
    История дельфина 2 / Dolphin Tale 2 [2014, США, драма, семейный, HDRip, Дубляж - Лицензия / iTunes] смотреть онлайн, скачать торрент picoco.icu