Ссылка на приватное зеркало нашего сайта всего за 1$. Внимание количество ограничено!!!

2 сезон

iTunes

1 сезон

1

2 сезон

2 сезон

iTunes

1 сезон

RePack

30

Ultimate

ВАЖНО

ИГРА 18+

pack

RePack

MK11
pack

Забери бонус

RePack

jed

!!Акция!!

Alien_Rage

RePack

fifa19

RePack

Assassins Creed: Odyssey

RePack

NEED FOR SPEED™ PAYBACK

4 сезон

9 сезон

Бесстыжие 9 сезон

Все сериалы

все сериалы на PB.wtf

RePack

FAR CRY 5
  

Моцарт в джунглях / Mozart in the Jungle / Сезон: 1 / Серии: 1 из 10 (Пол Вайц) [2014, Комедия, музыка, WEBRip 720p] DVO (Ozz) + Original + Subs pb.wtf

Моцарт в джунглях через торрент pb.wtf

Размер: 971 MB | Добавлен: 6 лет назад | Торрент скачан:16 раз
Скачать  

27-11-2014 06:05 Моцарт в джунглях Скачать торрент  

Моцарт в джунглях / Mozart in the Jungle
Год выпуска: 2014
Страна: США
Жанр: Комедия, музыка
Продолжительность: ~ 00:30:00
Перевод: Профессиональный двухголосый(Ozz)
Субтитры: Russian, English

Режиссер: Пол Вайц



В ролях: Гаэль Гарсиа Берналь, Малкольм МакДауэлл, Саффрон Берроуз, Бернадетт Питерс, Лола Керк, Дженнифер Ким, Питер Вак, Ханна Данн

Описание: Сериал рассказывает историю гобоистки Хэйли и её злоключений в Нью-Йорке. Будут и секс, и разнузданные вечеринки, и уроки игры на гобое, и соблазнительные танцоры балета, и чего только не будет. И всё это, разумеется, с классической музыкой фоном, и выступлениями в Нью-Йоркской Филармонии под руководством старого дирижёра Томаса, и нового дирижёра Родриго.

Перевод: Trotteville
Озвучка: Ирина Воронова и Алексей Серегин

Качество: WEBRip 720p
Формат: MKV
Видео кодек: AVC
Аудио кодек: AC3
Видео: 1280x720 (16:9), 23.976 fps, 3 578 Kbps (0.162 bit/pixel)
Аудио#1: 48.0 KHz, 6 ch, 384 Kbps, CBR (Russian)
Аудио#2: 48.0 KHz, 6 ch, 640 Kbps, CBR (English)
Общее
Уникальный идентификатор : 218517970739836697917688002914337991739 (0xA46507C34736B2A59BBC087F1860AC3B)
Полное имя : H:\Моцарт в джунглях\Mozart.in.the.Jungle.S01.720p.WEBRip\Mozart.in.the.Jungle.S01E01.720p.WEBRip.Rus.Eng.mkv
Формат : Matroska
Версия формата : Version 4 / Version 2
Размер файла : 971 Мбайт
Продолжительность : 28 м.
Общий поток : 4695 Кбит/сек
Дата кодирования : UTC 2014-11-25 15:40:47
Программа кодирования : mkvmerge v7.3.0 ('Nouages') 64bit built on Oct 22 2014 18:53:34
Библиотека кодирования : libebml v1.3.0 + libmatroska v1.4.1
DURATION : 00:28:54.880000000
NUMBER_OF_FRAMES : 54215
NUMBER_OF_BYTES : 83274240
_STATISTICS_WRITING_APP : mkvmerge v7.3.0 ('Nouages') 64bit built on Oct 22 2014 18:53:34
_STATISTICS_WRITING_DATE_UTC : 2014-11-25 15:40:47
_STATISTICS_TAGS : BPS DURATION NUMBER_OF_FRAMES NUMBER_OF_BYTES

Видео
Идентификатор : 1
Формат : AVC
Формат/Информация : Advanced Video Codec
Профиль формата : High@L4.1
Параметр CABAC формата : Да
Параметр ReFrames формата : 9 кадров
Идентификатор кодека : V_MPEG4/ISO/AVC
Продолжительность : 28 м.
Битрейт : 3578 Кбит/сек
Ширина : 1280 пикселей
Высота : 720 пикселей
Соотношение сторон : 16:9
Режим частоты кадров : Постоянный
Частота кадров : 23,976 кадра/сек
Цветовое пространство : YUV
Субдискретизация насыщенности : 4:2:0
Битовая глубина : 8 бит
Тип развёртки : Прогрессивная
Бит/(Пиксели*Кадры) : 0.162
Размер потока : 740 Мбайт (76%)
Библиотека кодирования : x264 core 142 r2389 956c8d8
Настройки программы : cabac=1 / ref=9 / deblock=1:-3:-2 / analyse=0x3:0x133 / me=umh / subme=10 / psy=1 / psy_rd=0.95:0.00 / mixed_ref=1 / me_range=48 / chroma_me=1 / trellis=2 / 8x8dct=1 / cqm=0 / deadzone=21,11 / fast_pskip=0 / chroma_qp_offset=-2 / threads=12 / lookahead_threads=2 / sliced_threads=0 / nr=0 / decimate=0 / interlaced=0 / bluray_compat=0 / constrained_intra=0 / bframes=7 / b_pyramid=2 / b_adapt=2 / b_bias=0 / direct=3 / weightb=1 / open_gop=0 / weightp=2 / keyint=250 / keyint_min=24 / scenecut=40 / intra_refresh=0 / rc_lookahead=250 / rc=crf / mbtree=1 / crf=17.0 / qcomp=0.65 / qpmin=0 / qpmax=69 / qpstep=4 / vbv_maxrate=38000 / vbv_bufsize=30000 / crf_max=0.0 / nal_hrd=none / filler=0 / ip_ratio=1.40 / aq=1:0.80
Язык : English
Default : Да
Forced : Нет
DURATION : 00:28:54.817000000
NUMBER_OF_FRAMES : 41594
NUMBER_OF_BYTES : 795656351
_STATISTICS_WRITING_APP : mkvmerge v7.3.0 ('Nouages') 64bit built on Oct 22 2014 18:53:34
_STATISTICS_WRITING_DATE_UTC : 2014-11-25 15:40:47
_STATISTICS_TAGS : BPS DURATION NUMBER_OF_FRAMES NUMBER_OF_BYTES

Аудио #1
Идентификатор : 2
Формат : AC-3
Формат/Информация : Audio Coding 3
Расширение режима : CM (complete main)
Параметр Endianness формата : Big
Идентификатор кодека : A_AC3
Продолжительность : 28 м.
Вид битрейта : Постоянный
Битрейт : 384 Кбит/сек
Каналы : 6 каналов
Расположение каналов : Front: L C R, Side: L R, LFE
Частота : 48,0 КГц
Битовая глубина : 16 бит
Метод сжатия : С потерями
Размер потока : 79,4 Мбайт (8%)
Заголовок : Ozz @ DD 5.1
Язык : Russian
Default : Да
Forced : Нет

Аудио #2
Идентификатор : 3
Формат : AC-3
Формат/Информация : Audio Coding 3
Расширение режима : CM (complete main)
Параметр Endianness формата : Big
Идентификатор кодека : A_AC3
Продолжительность : 28 м.
Вид битрейта : Постоянный
Битрейт : 640 Кбит/сек
Каналы : 6 каналов
Расположение каналов : Front: L C R, Side: L R, LFE
Частота : 48,0 КГц
Битовая глубина : 16 бит
Метод сжатия : С потерями
Задержка видео : 20 мс.
Размер потока : 132 Мбайт (14%)
Язык : English
Default : Нет
Forced : Нет

Текст #1
Идентификатор : 4
Формат : UTF-8
Идентификатор кодека : S_TEXT/UTF8
Идентификатор кодека/Информация : UTF-8 Plain Text
Язык : Russian
Default : Нет
Forced : Нет

Текст #2
Идентификатор : 5
Формат : UTF-8
Идентификатор кодека : S_TEXT/UTF8
Идентификатор кодека/Информация : UTF-8 Plain Text
Язык : English
Default : Нет
Forced : Нет


Моцарт в джунглях скачать торрент


pb.wtf



Скачать Моцарт в джунглях через торрент http://pic.kartinco.top/images/8/twk4p.jpg Скачать фильм Моцарт в джунглях через торрент бесплантно в хорошем качестве Описание: Сериал рассказывает историю гобоистки Хэйли и её злоключений в Нью-Йорке. Будут и секс, и разнузданные вечеринки, и уроки игры на ... 10 10 2
Торрент: Зарегистрирован [2014-11-27 06:05] · скачан: 16 раз
Статус: √ проверено
Размер: 971 MB
Как cкачать? Как скачать Моцарт в джунглях через торрент | qTorrent

28-11-2019 20:33  

Отключить всю рекламу на сайте

    Дорогой пользователь! Огромная просьба, поблагодарите релизера, оцените раздачу и оставьте свои комментарий, если Вы скачали Моцарт в джунглях через торрент бесплатно! Внесите свою лепту в развитие PiratBit!
    Комментировать посты могут только пользователи прошедшие не сложную регистрацию
    Показать сообщения:    

    Моцарт в джунглях через торрент
    Скачать бесплатно Моцарт в джунглях
    Моцарт в джунглях скачать торрент
    Моцарт в джунглях смотреть онлайн
    Cкачать фильм Моцарт в джунглях бесплатно
    Моцарт в джунглях скачать торрент в хорошем качестве
    Моцарт в джунглях смотреть онлайн бесплатно в хорошем качестве


    Вы не можете начинать темы
    Вы не можете отвечать на сообщения
    Вы не можете редактировать свои сообщения
    Вы не можете удалять свои сообщения
    Вы не можете голосовать в опросах
    Вы не можете прикреплять файлы к сообщениям
    Вы можете скачивать файлы