1 сезон

3 сезон

iTunes

1

iTunes

MVO

iTunes

13

1 сезон

RePack

30

Deluxe

pack

Лицензия

ВАЖНО

ИГРА 18+

pack

RePack

MK11

RePack

jed

RePack

fifa19

RePack

RDR2

RePack

NEED FOR SPEED™ PAYBACK

4 сезон

9 сезон

Бесстыжие 9 сезон

Все сериалы

все сериалы на PB.wtf

RePack

FAR CRY 5

Anonymous, добрый день, мы катастрофически не успеваем собрать деньги на оплату серверов, помогите нам пожалуйста 5,10,15р., для нас важна любая помощь . В качестве благодарности мы отключим Вам всю рекламу на сайте (укажите свой ник в строку Ваше имя)!

×
  
Magnet ссылка

Младенец в подарок / Expecting (Джесси МакКормак / Jessie McCormack) [2013, драма, комедия, DVD5] R5 pb.wtf

Младенец в подарок через торрент pb.wtf

Размер: 4.05 GB | Добавлен: 6 лет 7 мес. назад | Торрент скачан:27 раз
Скачать  

27-11-2014 09:21 Младенец в подарок Скачать торрент  


Младенец в подарок / Expecting
«Когда планируешь жизнь заранее, судьба готовит неожиданные сюрпризы»
Страна: США
Студия: FilmColony, Unique New York Productions
Жанр: драма, комедия
Год выпуска: 2013
Мировая премьера: 11 марта 2013
Российская премьера: 15 мая 2014
Дата выхода DVD: 7 августа 2014
Продолжительность: 01:23:43
Перевод: Профессиональный (многоголосый закадровый) [Лицензия]
Cубтитры: нет
Оригинальная аудиодорожка: нет
Режиссер: Джесси МакКормак / Jessie McCormack
В ролях: Мишель Монахэн, Рада Митчелл, Джон Дор, Майкл Уэстон, Мими Кеннеди, Сара Олдрич, Элизабет Бонд, Нуала Кэмпбелл, Джули Дретзин, Сьюзэн Грэйс
Описание: Лиза стремится создать семью со свои мужем Питером, но не может забеременеть. Ее лучшая подруга Энди тем временем узнает, что беременна и предлагает своего ребенка отдать Лизе. Лиза приглашает Энди пожить на время беременности у них, а Питер приглашает своего непутевого брата. В доме начинает твориться хаос, и одному Богу известно чем все это может закончиться…
Бонусы: нет

Релиз группы:
Качество: DVD5 R5
Формат: DVD-Video
Видео кодек: MPEG2
Аудио кодек: AC3
Видео: PAL 16:9 (720x576(0.617)) MPEG Video, 25,000 кадр/сек, 6401 Кбит/сек
Аудио: Russian (Dolby AC3, 6 ch) 448 Кбит/сек, 48,0 КГц



Title: Mladenec.v.podarok.2013.DVD5
Size: 4.05 Gb ( 4 250 192,00 KBytes ) - DVD-5
Enabled regions: 1, 2, 3, 4, 5, 6, 7, 8

VTS_01 :
Play Length: 00:00:19
Video: PAL 16:9 (720x576) VBR, Auto Pan&Scan, Auto Letterboxed
Audio:
Not specified (Dolby AC3, 2 ch)

VTS_02 :
Play Length: 01:23:43
Video: PAL 16:9 (720x576) VBR, Auto Letterboxed
Audio:
Not specified (Dolby AC3, 6 ch)

* Menus Information *

VIDEO_TS Menu
Video:
PAL 16:9 (720x576) VBR
Auto Pan&Scan, Auto Letterboxed
English Language Unit :
Title Menu

VTS_01 Menu
Video:
PAL 16:9 (720x576) VBR
Auto Pan&Scan, Auto Letterboxed
Audio:
Not specified (Dolby AC3, 6 ch)
English Language Unit :
Root Menu

VTS_02 Menu
Video:
PAL 4:3 (720x576) VBR
English Language Unit :
Root Menu
Общее
Полное имя : F:\Новинки 2014\Mladenec.v.podarok.2013.DVD5\VIDEO_TS\VTS_02_2.VOB
Формат : MPEG-PS
Размер файла : 1024 Мбайт
Продолжительность : 20 м.
Режим общего битрейта : Переменный
Общий поток : 6988 Кбит/сек

Видео
Идентификатор : 224 (0xE0)
Формат : MPEG Video
Версия формата : Version 2
Профиль формата : Main@Main
Параметр BVOP формата : Да
Параметр матрицы формата : Выборочная
Параметр GOP формата : M=3, N=15
Format_Settings_PictureStructure : Frame
Продолжительность : 20 м.
Вид битрейта : Переменный
Битрейт : 6401 Кбит/сек
Максимальный битрейт : 9000 Кбит/сек
Ширина : 720 пикселей
Высота : 576 пикселей
Соотношение сторон : 16:9
Частота кадров : 25,000 кадров/сек
Стандарт вещания : PAL
Цветовое пространство : YUV
Субдискретизация насыщенности : 4:2:0
Битовая глубина : 8 бит
Тип развёртки : Чересстрочная
Порядок развёртки : Верхнее поле первое
Метод сжатия : С потерями
Бит/(Пиксели*Кадры) : 0.617
Временной код первого кадра : 00:22:12:14
Оригинал временного кода : Group of pictures header
Размер потока : 938 Мбайт (92%)

Аудио
Идентификатор : 189 (0xBD)-128 (0x80)
Формат : AC-3
Формат/Информация : Audio Coding 3
Расширение режима : CM (complete main)
Параметр Endianness формата : Big
Режим смешивания : DVD-Video
Продолжительность : 20 м.
Вид битрейта : Постоянный
Битрейт : 448 Кбит/сек
Каналы : 6 каналов
Расположение каналов : Front: L C R, Side: L R, LFE
Частота : 48,0 КГц
Битовая глубина : 16 бит
Метод сжатия : С потерями
Задержка видео : -560 мс.
Размер потока : 65,7 Мбайт (6%)










pb.wtf



Скачать Младенец в подарок через торрент http://i67.fastpic.ru/big/2014/1126/08/29d30a4cc9df6c03cd2383094374a708.jpg Скачать фильм Младенец в подарок через торрент бесплантно в хорошем качестве Описание: Лиза стремится создать семью со свои мужем Питером, но не может забеременеть. Ее лучшая подруга Энди тем временем узнает, что ... 10 10 1
Торрент: Зарегистрирован [2014-11-27 09:21] · скачан: 27 раз
Статус: √ проверено
Размер: 4.05 GB
Как cкачать? Как скачать Младенец в подарок через торрент | UTorrent

28-11-2019 20:33  

Отключить всю рекламу на сайте

    Дорогой пользователь! Огромная просьба, поблагодарите релизера, оцените раздачу и оставьте свои комментарий, если Вы скачали Младенец в подарок через торрент бесплатно! Внесите свою лепту в развитие PiratBit!
    Комментировать посты могут только пользователи прошедшие не сложную регистрацию
    Показать сообщения:    

    Младенец в подарок через торрент
    Скачать бесплатно Младенец в подарок
    Младенец в подарок скачать торрент
    Младенец в подарок смотреть онлайн
    Cкачать фильм Младенец в подарок бесплатно
    Младенец в подарок скачать торрент в хорошем качестве
    Младенец в подарок смотреть онлайн бесплатно в хорошем качестве


    Вы не можете начинать темы
    Вы не можете отвечать на сообщения
    Вы не можете редактировать свои сообщения
    Вы не можете удалять свои сообщения
    Вы не можете голосовать в опросах
    Вы не можете прикреплять файлы к сообщениям
    Вы можете скачивать файлы