Ссылка на приватное зеркало всего за 1$. Внимание количество ограничено!!!

OK

1+1

iTunes

мы

OK

1

WEB-DLRip

Джокер

Пифагор

Ведьмак / The Witcher сериал

Лицензия

ПШазам

ОК

Оно 2

iTunes

30
pack

Вам бонус

ВАЖНО

!!Акция!!

Alien_RageХит недели

RePack

Resident Evil 21

ИГРА 18+

pack

RePack

jed

RePack

fifa19

RePack

Assassins Creed: Odyssey

RePack

NEED FOR SPEED™ PAYBACK

4 сезон

9 сезон

Бесстыжие 9 сезон

Все сериалы

все сериалы на PB.wtf

RePack

FAR CRY 5
  

Потерянная комната / The Lost Room / Сезон: 1 / Серии: 1-6 из 6 (Крэйг Р. Бэксли) [2006, фантастика, фэнтези, боевик, детектив, HDTVRip 1080p] MVO + Original pb.wtf

Потерянная комната через торрент pb.wtf

Размер: 21.91 GB | Добавлен: 5 лет 1 мес. назад | Торрент скачан:226 раз
Скачать  

27-11-2014 12:15 Потерянная комната Скачать торрент  


Потерянная комната (мини-сериал) / The Lost Room
«Некоторые двери лучше не открывать»

Год выпуска:2006
Страна: США
Жанр:фантастика, фэнтези, боевик, детектив
Продолжительность:04:18:53
Длительность серий: 6х 00:43:00
Перевод:Профессиональный многоголосый
Субтитры: английские
Режиссер:Крэйг Р. Бэксли , Майкл В. Уоткинс

  • В ролях:

    Питер Краузе (Joe Miller), Джулианна Маргулис (Jennifer Bloom), Питер Джекобсон (Wally Jabrowski), Деннис Кристофер (Dr. Martin Ruber), Эйприл Грэйс (Lee Bridgewater), Эль Фаннинг (Anna Miller), Кевин Поллак (Karl Kreutzfeld), Бенжамин Петри (Isaac Kreutzfeld), Джейсон Дуглас (Anthony), Кристофер Бауэр (Lou Destefano), Харриет Сэнсом Харрис (Margaret Milne), Маргарет Чо (Suzie Kang)
  • Описание:
    Что если весь мир устроен не так просто, как нам кажется? Что если самые простые бытовые предметы обладают свойствами, которые не поддаются объяснению? И что если самый близкий Вам человек оказался в плену этих мистических событий?
    Предлагаем вам присоединиться к детективу Джо Миллеру и другим героям новейшего телефильма «Пропавшая комната» и узнать всю правду о том, что случилось в десятом номере мотеля «Саншайн» и как это изменило судьбу всего мира.

  • Мировая премьера:11 декабря 2006

    Качество: HDTVRip 1080p
    Формат:MKV
    Видео кодек: AVC
    Аудио кодек:AC3
    Видео: 1920x1080 (16:9), 29.970 fps,~20.0 Mbps
    Аудио №1: русский / 48 kHz, AC3, 3/2 (L,C,R,l,r) + LFE ch, ~384.00 kbps avg ||
    Аудио №2: английский / 48 kHz, AC3, 3/2 (L,C,R,l,r) + LFE ch, ~640.00 kbps avg


    Код:

    General
    Unique ID : 207130752160872720865541767597414818836 (0x9BD3EE8A61380ED69191B8EA8D9E2414)
    Название : E:\Тореннт\Потерянная комната\Потерянная комната 1.mkv
    Формат : Matroska
    Формат version : Version 2
    Размер файла : 3.87 GiB
    Длительность : 43mn 34s
    Общий Битрейт mode : Variable
    Общий Битрейт : 12.7 Mbps
    Movie name : The Lost Room (2006) [Episode 1 - The Key]
    Encoded date : UTC 2013-09-21 09:23:21
    Создано приложением : mkvmerge v3.3.0 ('Язык') built on Mar 24 2010 14:59:24
    Writing library : libebml v0.8.0 + libmatroska v0.9.0
    Video
    ID : 1
    Формат : AVC
    Формат/Info : Advanced Video Кодек
    Формат profile : High@L4.1
    Формат настройки, CABAC : Yes
    Формат настройки, ReFrames : 4 frames
    Кодек ID : V_MPEG4/ISO/AVC
    Длительность : 43mn 34s
    Битрейт mode : Variable
    Битрейт : 11.0 Mbps
    Maximum Битрейт : 35.0 Mbps
    Width : 1 920 пикселей
    Высота : 1 080 пикселей
    Соотношение кадра : 16:9
    Частота кадров mode : Constant
    Частота кадров : 23.976 fps
    Standard : NTSC
    Цветопередача : YUV
    Chroma subsampling : 4:2:0
    Разрядность : 8 bits
    Тип сканирования : Progressive
    Bits/(Pixel*Frame) : 0.221
    Размер потока : 3.48 GiB (90%)
    Title : The Lost Room (2006) [Episode 1 - The Key]
    Writing library : x264 core 105 r1724 b02df7b
    Encoding настройки : cabac=1 / ref=4 / deblock=1:-1:-1 / analyse=0x3:0x113 / me=umh / subme=9 / psy=1 / psy_rd=1.00:0.15 / mixed_ref=1 / me_range=24 / chroma_me=1 / trellis=1 / 8x8dct=1 / cqm=0 / deadzone=21,11 / fast_pskip=0 / chroma_qp_offset=-3 / threads=6 / sliced_threads=0 / slices=4 / nr=0 / decimate=1 / interlaced=0 / constrained_intra=0 / bframes=3 / b_pyramid=0 / b_adapt=2 / b_bias=0 / direct=3 / weightb=1 / open_gop=0 / weightp=0 / keyint=48 / keyint_min=2 / scenecut=40 / intra_refresh=0 / rc_lookahead=48 / rc=abr / mbtree=1 / bitrate=11001 / ratetol=1000000000.0 / qcomp=0.70 / qpmin=10 / qpmax=51 / qpstep=4 / vbv_maxrate=35000 / vbv_bufsize=30000 / ip_ratio=1.10 / aq=2:1.00 / nal_hrd=vbr
    Default : Yes
    Forced : No
    Color primaries : BT.709
    Transfer characteristics : BT.709
    Matrix coefficients : BT.709
    Audio #1
    ID : 2
    Формат : AC-3
    Формат/Info : Audio Coding 3
    Расширение режима : CM (complete main)
    Формат настройки, Endianness : Big
    Кодек ID : A_AC3
    Длительность : 43mn 34s
    Битрейт mode : Constant
    Битрейт : 384 Kbps
    Каналы(s) : 6 каналов
    Каналы positions : Front: L C R, Side: L R, LFE
    Частота : 48.0 KHz
    Разрядность : 16 bits
    Режим сжатия : Lossy
    Размер потока : 120 MiB (3%)
    Title : Multi VoiceOver
    Язык : Russian
    Default : Yes
    Forced : No
    Audio #2
    ID : 3
    Формат : AC-3
    Формат/Info : Audio Coding 3
    Расширение режима : CM (complete main)
    Формат настройки, Endianness : Big
    Кодек ID : A_AC3
    Длительность : 43mn 34s
    Битрейт mode : Constant
    Битрейт : 640 Kbps
    Каналы(s) : 6 каналов
    Каналы positions : Front: L C R, Side: L R, LFE
    Частота : 48.0 KHz
    Разрядность : 16 bits
    Режим сжатия : Lossy
    Размер потока : 199 MiB (5%)
    Title : Original
    Язык : English
    Default : No
    Forced : No

    Эпизод 1. Ключ
    Эпизод 2. Часы
    Эпизод 3. Расчёска
    Эпизод 4. Футляр
    Эпизод 5. Глаз
    Эпизод 6. Исходный Предмет

    Скриншоты:
    скриншот   скриншот   скриншот   скриншот   скриншот   скриншот   скриншот   скриншот   скриншот  скриншот   скриншот  
    pb.wtf



  • Скачать Потерянная комната через торрент http://pic.kartinco.top/images/6/ordi9.jpg Скачать фильм Потерянная комната через торрент бесплантно в хорошем качестве Описание:Что если весь мир устроен не так просто, как нам кажется? Что если самые простые бытовые предметы обладают свойствами, которые не ... 10 10 16
    Торрент: Зарегистрирован [2014-11-27 12:15] · скачан: 226 раз
    Статус: √ проверено
    Размер: 21.91 GB
    Как cкачать? Как скачать Потерянная комната через торрент | qTorrent



    Последний раз редактировалось: Gerbionka (2014-12-01 14:40), всего редактировалось 5 раз(а)

    28-11-2019 20:33  

    Отключить всю рекламу на сайте

    27-11-2014 12:58 Потерянная комната Скачать торрент  

    Все 6 серий на одном дыхании! Очень рекомендую! Смотрел, наверное, лет 7 назад, но до сих пор под впечатлением pb.wtf



    27-11-2014 13:37 Потерянная комната Скачать торрент  

    субтитры вшитые или убираются?pb.wtf



    27-11-2014 14:05 Потерянная комната Скачать торрент  

    Очень крутой сериал, жаль что так резко закончилиpb.wtf



    27-11-2014 14:34 Потерянная комната Скачать торрент  

    александрsavitcky писал(а):

    субтитры вшитые или убираются?

    Вшитыеpb.wtf



    27-11-2014 15:48 Потерянная комната Скачать торрент  

    Посмотрим,за ценим,поможем в раздаче.Да Спасибо.pb.wtf



    28-11-2014 03:41 Потерянная комната Скачать торрент  

    сериал хорош.вот сомнения от 1080p/нет его.качество видеокассетыpb.wtf



    13-12-2014 01:53 Потерянная комната Скачать торрент  

    спасибо за сериал, думал что все сериалы интересные посмотрел)) оказалось, что нет, очень понравился, всем рекомендую, сел и 6 серий подряд посмотрел)pb.wtf



    02-12-2015 13:13 Потерянная комната Скачать торрент  

    Дайте скорости плизpb.wtf



      Дорогой пользователь! Огромная просьба, поблагодарите релизера, оцените раздачу и оставьте свои комментарий, если Вы скачали Потерянная комната через торрент бесплатно! Внесите свою лепту в развитие PiratBit!
      Комментировать посты могут только пользователи прошедшие не сложную регистрацию
      Показать сообщения:    

      Потерянная комната через торрент
      Скачать бесплатно Потерянная комната
      Потерянная комната скачать торрент
      Потерянная комната смотреть онлайн
      Cкачать фильм Потерянная комната бесплатно
      Потерянная комната скачать торрент в хорошем качестве
      Потерянная комната смотреть онлайн бесплатно в хорошем качестве


      Вы не можете начинать темы
      Вы не можете отвечать на сообщения
      Вы не можете редактировать свои сообщения
      Вы не можете удалять свои сообщения
      Вы не можете голосовать в опросах
      Вы не можете прикреплять файлы к сообщениям
      Вы можете скачивать файлы