Ссылка на приватное зеркало нашего сайта всего за 1$. Внимание количество ограничено!!!

2 сезон

iTunes

1 сезон

1

2 сезон

2 сезон

iTunes

1 сезон

RePack

30

Ultimate

ВАЖНО

ИГРА 18+

pack

RePack

MK11
pack

Забери бонус

RePack

jed

!!Акция!!

Alien_Rage

RePack

fifa19

RePack

Assassins Creed: Odyssey

RePack

NEED FOR SPEED™ PAYBACK

4 сезон

9 сезон

Бесстыжие 9 сезон

Все сериалы

все сериалы на PB.wtf

RePack

FAR CRY 5
  

Бездельницы / Drifters / Сезон: 2 / Серии: 6 из 6 (Саймон Делани) [2014, комедия, HDTVRip] DVO (HamsterStudio) +Original pb.wtf

Бездельницы через торрент pb.wtf

Размер: 1.37 GB | Добавлен: 5 лет 10 мес. назад | Торрент скачан:3 раза
Скачать  

27-11-2014 13:40 Бездельницы Скачать торрент  

Бездельницы / Drifters
Год выпуска: 2014
Страна: Великобритания
Жанр: комедия
Продолжительность: 00:23:00
Перевод: Профессиональный двухголосый(HamsterStudio)

Режиссер: Саймон Делани



В ролях: Лидия Роуз Бьюли, Джессика Нэппет, Лорен О’Рурк, Боб Мортимер, Арабелла Веир и др

Описание: Сериал рассказывает о жизни и приключениях подруг, живущих в Лидсе. Они изо всех пытаются найти работу, но ничего не получается. Здесь показаны очень смешные и унизительные приключения Мэг, её кузины Банни и их подруги Лауры. Они обнаруживают, что жизнь намного сложнее, чем они могли себе представить.

Качество: HDTVRip
Формат: AVI
Видео кодек: XviD
Аудио кодек: AC3
Видео: 720x400, 23.976 fps, 1 093 Kbps, 0.152 bit/pixel
Аудио#1: Русский 48.0 KHz, 2 ch, 128 Kbps
Аудио#2: Английский 48.0 KHz, 2 ch, 128 Kbps
Озвучка: Андрей Жариков и Анастасия Снегирёва
Перевод: Антон Кедров
Монтаж и сведение звука: Kiberline
по заказу
Внимание! Раздача ведётся путём добавления новых серий; при каждом добавлении создаётся новый торрент. Чтобы начать докачку новой серии, пользователям необходимо сделать следующее:
(1) остановить скачивание,
(2) удалить старый торрент у себя из клиента (старые серии удалять не надо),
(3) скачать новый торрент и запустить его у себя в клиенте вместо старого, при этом указать клиенту путь в старую папку куда и должно происходить скачивание новых серий.
Ваш клиент при этом должен произвести хеширование (проверку) старой папки (если не производит сам - помогите ему сделать это), и будет докачивать только те серии которых у вас ещё нет. Старые серии при этом не удаляются, а продолжают раздаваться!
Eсли вы уже удалили старые серии, то предотвратить повторную закачку старых серий можно, отжав галочку в соответствующих местах при запуске нового торрента. По возможности, желательно не удалять старые серии как можно дольше чтобы релизёр не столько продолжал раздавать старые серии, а смог сконцентрироваться на новых.

Общее
Полное имя : H:\Бездельницы\Бездельницы 2\Drifters.s02e01.HDTVRip.HamsterStudio.Org.avi
Формат : AVI
Формат/Информация : Audio Video Interleave
Размер файла : 233 Мбайт
Продолжительность : 23 м.
Общий поток : 1363 Кбит/сек
Программа кодирования : VirtualDubModRus 1.5.10.2 (build 2540/release)
Библиотека кодирования : VirtualDubMod build 2540/release

Видео
Идентификатор : 0
Формат : MPEG-4 Visual
Профиль формата : Advanced Simple@L5
Параметр BVOP формата : 1
Параметр QPel формата : Нет
Параметр GMC формата : Без точки перехода
Параметр матрицы формата : Default (H.263)
Идентификатор кодека : XVID
Идентификатор кодека/Подсказка : XviD
Продолжительность : 23 м.
Битрейт : 1093 Кбит/сек
Ширина : 720 пикселей
Высота : 400 пикселей
Соотношение сторон : 16:9
Частота кадров : 25,000 кадров/сек
Цветовое пространство : YUV
Субдискретизация насыщенности : 4:2:0
Битовая глубина : 8 бит
Тип развёртки : Прогрессивная
Метод сжатия : С потерями
Бит/(Пиксели*Кадры) : 0.152
Размер потока : 187 Мбайт (80%)
Библиотека кодирования : XviD 1.2.1 (UTC 2008-12-04)

Аудио #1
Идентификатор : 1
Формат : MPEG Audio
Версия формата : Version 1
Профиль формата : Layer 3
Режим : Joint stereo
Расширение режима : MS Stereo
Идентификатор кодека : 55
Идентификатор кодека/Подсказка : MP3
Продолжительность : 23 м.
Вид битрейта : Постоянный
Битрейт : 128 Кбит/сек
Каналы : 2 канала
Частота : 48,0 КГц
Метод сжатия : С потерями
Размер потока : 21,9 Мбайт (9%)
Выравнивание : Соединение по промежуткам
Продолжительность промежутка : 40 мс. (1,00 видеокадр)
Время предзагрузки промежутка : 504 мс.

Аудио #2
Идентификатор : 2
Формат : MPEG Audio
Версия формата : Version 1
Профиль формата : Layer 3
Идентификатор кодека : 55
Идентификатор кодека/Подсказка : MP3
Продолжительность : 23 м.
Вид битрейта : Постоянный
Битрейт : 128 Кбит/сек
Каналы : 2 канала
Частота : 48,0 КГц
Метод сжатия : С потерями
Размер потока : 21,9 Мбайт (9%)
Выравнивание : Соединение по промежуткам
Продолжительность промежутка : 40 мс. (1,00 видеокадр)
Время предзагрузки промежутка : 504 мс.
Библиотека кодирования : LAME3.99r
Настройки программы : -m s -V 4 -q 2 -lowpass 17 -b 128


Бездельницы скачать торрент


pb.wtf



Скачать Бездельницы через торрент http://pic.kartinco.top/images/8/628y6.jpg Скачать фильм Бездельницы через торрент бесплантно в хорошем качестве Описание: Сериал рассказывает о жизни и приключениях подруг, живущих в Лидсе. Они изо всех пытаются найти работу, но ничего не получается. ... 7.3 10 3
Торрент: Зарегистрирован [2015-01-14 09:31] · скачан: 3 раз
Статус: √ проверено
Размер: 1.37 GB
Как cкачать? Как скачать Бездельницы через торрент | qTorrent

28-11-2019 20:33  

Отключить всю рекламу на сайте

    Дорогой пользователь! Огромная просьба, поблагодарите релизера, оцените раздачу и оставьте свои комментарий, если Вы скачали Бездельницы через торрент бесплатно! Внесите свою лепту в развитие PiratBit!
    Комментировать посты могут только пользователи прошедшие не сложную регистрацию
    Показать сообщения:    

    Бездельницы через торрент
    Скачать бесплатно Бездельницы
    Бездельницы скачать торрент
    Бездельницы смотреть онлайн
    Cкачать фильм Бездельницы бесплатно
    Бездельницы скачать торрент в хорошем качестве
    Бездельницы смотреть онлайн бесплатно в хорошем качестве


    Вы не можете начинать темы
    Вы не можете отвечать на сообщения
    Вы не можете редактировать свои сообщения
    Вы не можете удалять свои сообщения
    Вы не можете голосовать в опросах
    Вы не можете прикреплять файлы к сообщениям
    Вы можете скачивать файлы