2 сезон

iTunes

1 сезон

1

iTunes

iTunes

iTunes

1 сезон

RePack

30

ИГРА 18+

pack

ВАЖНО

!!Акция!!

Alien_RageХит недели

RePack

MK11
pack

Забери бонус

RePack

jed

!!Акция!!

Alien_Rage

RePack

fifa19

RePack

Assassins Creed: Odyssey

RePack

NEED FOR SPEED™ PAYBACK

4 сезон

9 сезон

Бесстыжие 9 сезон

Все сериалы

все сериалы на PB.wtf

RePack

FAR CRY 5
  

Профессионал / Серии: 1-16 из 16 (Алан Дзоциев) [2014 г., Боевик, SATRip] pb.wtf

Профессионал через торрент pb.wtf

Размер: 7.89 GB | Добавлен: 5 лет 11 мес. назад | Торрент скачан:1138 раз
Скачать  

27-11-2014 16:52 Профессионал Скачать торрент  

ПрофессионалГод выпуска: 2014
Страна: Россия Панорама
Жанр: Боевик
Продолжительность: 16 x ~ 00:44:00
Перевод: Оригинал
Режиссер: Алан Дзоциев
Продюссер: Ада Ставиская
Сценарий: Максим Есаулов, Андрей Романов, Андрей Орлов
Премьера в мире: 13 ноября 2014
В ролях: Алексей Лобанов, Константин Стрельников, Игорь Лагутин, Евгения Игумнова, Сергей Юшкевич, Андрей Горбачёв, Юрий Батурин, Анатолий Лобоцкий, Мария Решавская, Владимир Артёмов, Валерий Баринов, Сергей Жигунов, Юрий Ицков, Михаил Черняк, Александр Марушев, Сергей Амосов, Руслан Барабанов, Анатолий Ильченко, Алексей Федотов, Руслан Кацагаджиев, Стэнли Красовицки, Владимир Бирюков, Александр Иванов, Роман Жилкин, Борис Хасанов, Александр Голубков
Описание: Сбежав из тюрьмы в Джакарте, где он провёл в заключении долгих четырнадцать лет, разведчик Андрей Зубов возвращается на родину, чтобы найти причины провала своей опергруппы и наказать виновников гибели жены. Преодолев тысячи километров, Зубов вынужден столкнуться с новым предательством, он становится объектом преследования своих бывших коллег, среди которых многие заинтересованы в том, чтобы он замолчал и исчез навсегда. Но, благодаря помощи новых и старых друзей, ему всё-таки удаётся невозможное - настоящий профессионал в своём деле, Зубов вступает в борьбу с преступной системой и побеждает её. Но многие вопросы, мучающие Андрея, так и остаются без ответа...
Качество: SATRip
Формат: AVI
Видео кодек: XviD
Аудио кодек: MP3
Видео: Xvid 720x400, 25fps, 1400kbps
Аудио: MP3 48000Hz, stereo, 192kbps
Релиз от: simkanetua
Скриншоты:скриншот  скриншот  скриншот  скриншот  скриншот  




General
Complete name : E:\01 02 sicret3\Профессионал (2014)\Профессионал.(01.seriya).2014.XviD.SATRip.by.simka.avi
Format : AVI
Format/Info : Audio Video Interleave
File size : 483 MiB
Duration : 42mn 10s
Overall bit rate : 1 602 Kbps
Writing application : VirtualDubModRus 1.5.10.2 (build 2542/release)
Writing library : VirtualDubMod build 2542/release

Video
ID : 0
Format : MPEG-4 Visual
Format profile : Advanced Simple@L5
Format settings, BVOP : 1
Format settings, QPel : No
Format settings, GMC : No warppoints
Format settings, Matrix : Default (MPEG)
Codec ID : XVID
Codec ID/Hint : XviD
Duration : 42mn 10s
Bit rate : 1 400 Kbps
Width : 720 pixels
Height : 400 pixels
Display aspect ratio : 16:9
Frame rate : 25.000 fps
Color space : YUV
Chroma subsampling : 4:2:0
Bit depth : 8 bits
Scan type : Progressive
Compression mode : Lossy
Bits/(Pixel*Frame) : 0.194
Stream size : 422 MiB (87%)
Writing library : XviD 1.2.1 (UTC 2008-12-04)

Audio
ID : 1
Format : MPEG Audio
Format version : Version 1
Format profile : Layer 3
Mode : Joint stereo
Mode extension : MS Stereo
Codec ID : 55
Codec ID/Hint : MP3
Duration : 42mn 10s
Bit rate mode : Constant
Bit rate : 192 Kbps
Channel(s) : 2 channels
Sampling rate : 48.0 KHz
Compression mode : Lossy
Stream size : 57.9 MiB (12%)
Alignment : Aligned on interleaves
Interleave, duration : 40 ms (1.00 video frame)
Interleave, preload duration : 504 ms
Writing library : LAME3.99r
Encoding settings : -m j -V 4 -q 2 -lowpass 18.6 -b 192

pb.wtf



Скачать Профессионал через торрент http://pic.kartinco.top/images/8/dr1b7.jpg Скачать фильм Профессионал через торрент бесплантно в хорошем качестве Описание: Сбежав из тюрьмы в Джакарте, где он провёл в заключении долгих четырнадцать лет, разведчик Андрей Зубов возвращается на родину, ... 9.7 10 32
Info! Золотая раздача, скачанное не засчитывается.
Торрент: Зарегистрирован [2014-11-27 16:52] · скачан: 1 138 раз
Статус: √ проверено
Размер: 7.89 GB
Как cкачать? Как скачать Профессионал через торрент | qTorrent

% Раздел Тема Автор DL S | L
Документальные фильмы и телепередачи [ 12.12 GB ] Водный мир Африки / Waterworld Africa [2015-2016 Документальный природа флора фауна дайвинг IPTV ] Бумер Скачать
1 | 0
Документальные фильмы и телепередачи [ 19.26 GB ] Ледовый путь дальнобойщиков / Ice Road Truckers /2 сезон / 1-16 серия из 16 / [2008 Документальный BDRip ] Бумер Скачать
1 | 0
R.G.Resident - Сериалы, Видео [ 4.97 GB ] Проповедник / Preacher / Сезон: 1 / Серии 1 - 10 из 10) [2016 WEB-DLRip-AVC многоголосый [AlexFilm] ] White Smoke Скачать
1 | 0
Зарубежные сериалы [ 24.75 GB ] Готэм / Gotham / Сезон 01-02 / Серии 1-44 из 44 [2014-2016 WEB-DLRip] многоголосый [LostFilm] xipypr Скачать
2 | 0
Зарубежные сериалы [ 2.05 GB ] Отвязный Дайс / Dice / Сезон 1 / [2016 HDTVRip ] ruslanishe Скачать
1 | 0
Рэй Донован [ 7.25 GB ] Рэй Донован / Ray Donovan / 4 сезон / серии 1-12 из 12 [2016 WEBRip ] Amedia point.td Скачать
1 | 0
Discovery [ 13.78 GB ] Discovery. Забытая инженерия / Abandoned Engineering / Сезон 1 / Серии 1-6 из 6 [2016 Документальный научно-познавательный исследования история HDTV 1080p ] vitalii2108 Скачать
1 | 0

28-11-2019 20:33  

Отключить всю рекламу на сайте

27-11-2014 18:26 Профессионал Скачать торрент  

я кино уже посмотрел полностью,хороший сериал.....pb.wtf



27-11-2014 19:51 Профессионал Скачать торрент  

Давно ждал. Сейчас за ценим! Раздающему за раздачу огромное СПАСИБО!!! ВСЕМ любителям Ментовских Войн смотреть обязательно! Так как продюсер и сценаристы фильма - это команда Ментовских войн. А кто может лучше них закручивать интригу? И находить новых актёров.pb.wtf



28-11-2014 05:39 Профессионал Скачать торрент  

Посмотрел с удовольствием !!! ХОРОШ фильм, хотя и наваляли трупов больше чем в Call of Duty. Ада Ставиская лучший продюcсер !!! Жду продолжения... или чего новенького.pb.wtf



03-12-2014 06:20 Профессионал Скачать торрент  

Отличный сериал!pb.wtf



15-03-2016 18:17 Профессионал Скачать торрент  

Дайте ходу пароходу.pb.wtf



    Дорогой пользователь! Огромная просьба, поблагодарите релизера, оцените раздачу и оставьте свои комментарий, если Вы скачали Профессионал через торрент бесплатно! Внесите свою лепту в развитие PiratBit!
    Комментировать посты могут только пользователи прошедшие не сложную регистрацию
    Показать сообщения:    

    Профессионал через торрент
    Скачать бесплатно Профессионал
    Профессионал скачать торрент
    Профессионал смотреть онлайн
    Cкачать фильм Профессионал бесплатно
    Профессионал скачать торрент в хорошем качестве
    Профессионал смотреть онлайн бесплатно в хорошем качестве


    Вы не можете начинать темы
    Вы не можете отвечать на сообщения
    Вы не можете редактировать свои сообщения
    Вы не можете удалять свои сообщения
    Вы не можете голосовать в опросах
    Вы не можете прикреплять файлы к сообщениям
    Вы можете скачивать файлы