Ссылка на приватное зеркало нашего сайта всего за 1$. Внимание количество ограничено!!!

2 сезон

iTunes

1 сезон

1

2 сезон

2 сезон

iTunes

1 сезон

RePack

30

Новинка

ВАЖНО

ИГРА 18+

pack

RePack

MK11
pack

Забери бонус

RePack

jed

!!Акция!!

Alien_Rage

RePack

fifa19

RePack

Assassins Creed: Odyssey

RePack

NEED FOR SPEED™ PAYBACK

4 сезон

9 сезон

Бесстыжие 9 сезон

Все сериалы

все сериалы на PB.wtf

RePack

FAR CRY 5
  

Спасение / The Salvation (Кристиан Левринг ) [2014, драма, вестерн, BDRip 1080p, AVO [Алексей Матвеев aka Doctor Joker] от R.G. HD-Films pb.wtf

Спасение через торрент pb.wtf

Размер: 7.51 GB | Добавлен: 5 лет 11 мес. назад | Торрент скачан:83 раза
Скачать  

28-11-2014 11:56 Спасение Скачать торрент  


Спасение / The Salvation
«Плохие парни умоются кровью»

Год выпуска:2014
Страна: Дания, Великобритания, ЮАР
Жанр:драма, вестерн
Продолжительность:01:32:00
Перевод:Авторский (одноголосый)[Алексей Матвеев aka Doctor Joker]
Режиссер:Кристиан Левринг

  • В ролях:

    Мадс Миккельсен (Jon), Ева Грин (Madelaine), Джеффри Дин Морган (Delarue), Эрик Кантона (Corsican), Микаэл Персбрандт (Peter), Дуглас Хеншэлл (Mallick), Майкл Рэймонд-Джеймс (Paul), Джонатан Прайс (Keane), Александр Арнольд (Voichek), Нанна Оланд Фабрициус (Marie), Токе Бьярке (Kresten), Шон Майкл (Lester)
  • Описание:
    Джон, фермер, чья семья убита, дает клятву отомстить, выслеживает и наказывает убийцу. Его действия запускают цепочку насилия: лидер местной банды со своими напарниками решает расправиться с Джоном и его деревней.

  • Мировая премьера:17 мая 2014

    Качество: BDRip 1080p
    Формат:MKV
    Видео кодек: AVC
    Аудио кодек:AC3
    Видео: AVC, 1920x808 (2.40:1), 11500 kbps, 24 fps, 0,309 bpp
    Аудио: русский / AC3 / 5.1 / 48 kHz / 384 kbps / 16 bit ||
    Навигация по главам: есть


    Код:

    General
    Unique ID                                : 203376959133802146837312813926840215661 (0x9900FA41558E895AAF3E83D3D94F286D)
    Complete name                            : D:\Торенты\Раздачи\The Salvation.1080p_R.G. HD-Films .mkv
    Format                                   : Matroska
    Format version                           : Version 4 / Version 2
    File size                                : 7.51 GiB
    Duration                                 : 1h 32mn
    Overall bit rate                         : 11.7 Mbps
    Movie name                               : Release for Piratbit.net_R.G. HD-Films
    Encoded date                             : UTC 2014-11-28 11:36:17
    Writing application                      : mkvmerge v7.3.0 ('Nouages') 64bit built on Oct 22 2014 18:53:34
    Writing library                          : libebml v1.3.0 + libmatroska v1.4.1
    DURATION                                 : 01:31:59.776000000
    NUMBER_OF_FRAMES                         : 172493
    NUMBER_OF_BYTES                          : 264949248
    _STATISTICS_WRITING_APP                  : mkvmerge v7.3.0 ('Nouages') 64bit built on Oct 22 2014 18:53:34
    _STATISTICS_WRITING_DATE_UTC             : 2014-11-28 11:36:17
    _STATISTICS_TAGS                         : BPS DURATION NUMBER_OF_FRAMES NUMBER_OF_BYTES
    Attachment                               : Yes

    Video
    ID                                       : 1
    Format                                   : AVC
    Format/Info                              : Advanced Video Codec
    Format profile                           : High@L4.1
    Format settings, CABAC                   : Yes
    Format settings, ReFrames                : 4 frames
    Codec ID                                 : V_MPEG4/ISO/AVC
    Duration                                 : 1h 32mn
    Bit rate                                 : 11.5 Mbps
    Width                                    : 1 920 pixels
    Height                                   : 808 pixels
    Display aspect ratio                     : 2.40:1
    Frame rate                               : 24.000 fps
    Color space                              : YUV
    Chroma subsampling                       : 4:2:0
    Bit depth                                : 8 bits
    Scan type                                : Progressive
    Bits/(Pixel*Frame)                       : 0.309
    Stream size                              : 7.11 GiB (95%)
    Title                                    : Release for Piratbit.net_R.G. HD-Films
    Writing library                          : x264 core 142 r2479 dd79a61
    Encoding settings                        : cabac=1 / ref=6 / deblock=1:-1:-1 / analyse=0x3:0x113 / me=umh / subme=8 / psy=1 / psy_rd=1.00:0.15 / mixed_ref=1 / me_range=16 / chroma_me=1 / trellis=1 / 8x8dct=1 / cqm=0 / deadzone=21,11 / fast_pskip=1 / chroma_qp_offset=-3 / threads=12 / lookahead_threads=2 / sliced_threads=0 / nr=0 / decimate=1 / interlaced=0 / bluray_compat=0 / constrained_intra=0 / bframes=3 / b_pyramid=2 / b_adapt=2 / b_bias=0 / direct=3 / weightb=1 / open_gop=0 / weightp=2 / keyint=240 / keyint_min=24 / scenecut=40 / intra_refresh=0 / rc_lookahead=50 / rc=abr / mbtree=1 / bitrate=11500 / ratetol=1.0 / qcomp=0.60 / qpmin=0 / qpmax=69 / qpstep=4 / vbv_maxrate=62500 / vbv_bufsize=78125 / nal_hrd=none / filler=0 / ip_ratio=1.40 / aq=1:1.00
    Language                                 : Russian
    Default                                  : Yes
    Forced                                   : No
    DURATION                                 : 01:32:00.792000000
    NUMBER_OF_FRAMES                         : 132499
    NUMBER_OF_BYTES                          : 7797889382
    _STATISTICS_WRITING_APP                  : mkvmerge v7.3.0 ('Nouages') 64bit built on Oct 22 2014 18:53:34
    _STATISTICS_WRITING_DATE_UTC             : 2014-11-28 11:36:17
    _STATISTICS_TAGS                         : BPS DURATION NUMBER_OF_FRAMES NUMBER_OF_BYTES
    Color primaries                          : BT.709-5, BT.1361, IEC 61966-2-4, SMPTE RP177
    Transfer characteristics                 : BT.709-5, BT.1361
    Matrix coefficients                      : BT.709-5, BT.1361, IEC 61966-2-4 709, SMPTE RP177

    Audio
    ID                                       : 2
    Format                                   : AC-3
    Format/Info                              : Audio Coding 3
    Mode extension                           : CM (complete main)
    Codec ID                                 : A_AC3
    Duration                                 : 1h 32mn
    Bit rate mode                            : Constant
    Bit rate                                 : 384 Kbps
    Channel(s)                               : 6 channels
    Channel positions                        : Front: L C R, Side: L R, LFE
    Sampling rate                            : 48.0 KHz
    Bit depth                                : 16 bits
    Compression mode                         : Lossy
    Delay relative to video                  : -83ms
    Stream size                              : 253 MiB (3%)
    Title                                    : Авторское (одноголосое) [Алексей Матвеев aka Doctor Joker]
    Language                                 : Russian
    Default                                  : Yes
    Forced                                   : Yes

    Menu
    00:00:00.000                             : :00:00:00.000
    00:09:59.917                             : :00:09:59.792
    00:20:00.083                             : :00:20:00.000
    00:29:59.958                             : :00:29:59.833
    00:39:59.708                             : :00:39:59.583
    00:49:59.917                             : :00:49:59.792
    00:59:59.917                             : :00:59:59.750
    01:09:59.792                             : :01:09:59.625
    01:19:59.917                             : :01:19:59.750
    01:30:00.042                             : :01:29:59.917

    Скриншоты:


    Релиз подготовлен специально для Piratbit.net. by Raven
    pb.wtf



  • Скачать Спасение через торрент http://pic.kartinco.top/images/6/ordi9.jpg Скачать фильм Спасение через торрент бесплантно в хорошем качестве Описание:Джон, фермер, чья семья убита, дает клятву отомстить, выслеживает и наказывает убийцу. Его действия запускают цепочку насилия: ... 7 10 4
    Торрент: Зарегистрирован [2014-11-28 11:56] · скачан: 83 раз
    Статус: √ проверено
    Размер: 7.51 GB
    Как cкачать? Как скачать Спасение через торрент | qTorrent

    % Раздел Тема Автор DL S | L
    Фильмы [HD 720p, 1080p] (Хороший звук DUB, MVO) [ 13.4 GB ] Спасение / The Salvation [2014 BDRip 1080p] - ()+ DVO + AVO от R.G. HD-Films Ворон Скачать
    1 | 0
    Фильмы [HD 720p, 1080p] (Хороший звук DUB, MVO) [ 7.55 GB ] Спасение / The Salvation [2014 BDRip 1080p Профессиональное [Студия Jaskier] от R.G. HD-Films Ворон Скачать
    1 | 0

    28-11-2019 20:33  

    Отключить всю рекламу на сайте

      Дорогой пользователь! Огромная просьба, поблагодарите релизера, оцените раздачу и оставьте свои комментарий, если Вы скачали Спасение через торрент бесплатно! Внесите свою лепту в развитие PiratBit!
      Комментировать посты могут только пользователи прошедшие не сложную регистрацию
      Показать сообщения:    

      Спасение через торрент
      Скачать бесплатно Спасение
      Спасение скачать торрент
      Спасение смотреть онлайн
      Cкачать фильм Спасение бесплатно
      Спасение скачать торрент в хорошем качестве
      Спасение смотреть онлайн бесплатно в хорошем качестве


      Вы не можете начинать темы
      Вы не можете отвечать на сообщения
      Вы не можете редактировать свои сообщения
      Вы не можете удалять свои сообщения
      Вы не можете голосовать в опросах
      Вы не можете прикреплять файлы к сообщениям
      Вы можете скачивать файлы