Ссылка на приватное зеркало нашего сайта всего за 1$. Внимание количество ограничено!!!

2 сезон

iTunes

1 сезон

1

2 сезон

2 сезон

iTunes

1 сезон

RePack

30

Ultimate

ВАЖНО

ИГРА 18+

pack

RePack

MK11
pack

Забери бонус

RePack

jed

!!Акция!!

Alien_Rage

RePack

fifa19

RePack

Assassins Creed: Odyssey

RePack

NEED FOR SPEED™ PAYBACK

4 сезон

9 сезон

Бесстыжие 9 сезон

Все сериалы

все сериалы на PB.wtf

RePack

FAR CRY 5
  

Голод / Hunger (Стив МакКуин) [2008, драма, биография, история, BDRemux] AVO+VO pb.wtf

Голод через торрент pb.wtf

Размер: 27.74 GB | Добавлен: 5 лет 11 мес. назад | Торрент скачан:19 раз
Скачать  

28-11-2014 14:50 Голод Скачать торрент  

Информация о фильме

Название: Голод

Оригинальное название: Hunger

Год выхода: 2008

Страна: Великобритания, Ирландия

Продолжительность: 01:36:14

Перевод: Авторский (одноголосый, закадровый) Юрий Сербин+ Любительский (одноголосый, закадровый)+ оригинал

Жанр: драма, биография, история

Режиссер: Стив МакКуин

В ролях: Майкл Фассбендер, Лиам Каннингэм, Стюарт Грэхэм, Лэйн Мигоу, Брайан Миллиган, Лайам МакМахон, Карен Хассан, Фрэнк Маккаскер, Лалор Родди, Хелен Мэдден

Описание: Фильм рассказывает о борьбе заключённых из Ирландской республиканской армии за признание за собой статуса политических. Сначала они пытаются добиться этого, отказываясь мыться, носить тюремную одежду и всячески разводя грязь в своих камерах. Однако эта тактика не принесла плодов: узников насильно стригли и мыли, избивая при этом до полусмерти. Наконец, один из них — Бобби Сэндс — решает начать смертельную голодовку…



Файл

Качество: BDRemux 1080p

Формат: MKV

Видео кодек: H.264

Аудио кодек: AC3, DTS

Видео: MPEG-4 AVC Video 34972 kbps 1080p / 23,976 fps / 16:9 / High Profile 4.1

Аудио 1: DTS-HD Master Audio Russian 5.1 / 48 kHz / 3071 kbps / 24-bit (DTS Core: 5.1 / 48 kHz / 1509 kbps / 24-bit) | Сербин

Аудио 2: Dolby Digital Audio Russian 2.0 / 48 kHz / 192 kbps | VO

Аудио 3: DTS-HD Master Audio English 5.1 / 48 kHz / 3051 kbps / 24-bit (DTS Core: 5.1 / 48 kHz / 1509 kbps / 24-bit)
General

Unique ID : 218146306529474146719567069925804733286 (0xA41D734D6E6EF724AE350FAFED81F366)

Complete name : Hunger.2008.1080p.Bluray.AVC.Remux.mkv

Format : Matroska

Format version : Version 2

File size : 27.7 GiB

Duration : 1h 36mn

Overall bit rate mode : Variable

Overall bit rate : 41.3 Mbps

Movie name : Hunger.2008.1080p.Bluray.AVC.Remux.HDCLUB

Encoded date : UTC 2012-09-06 09:41:59

Writing application : mkvmerge v4.9.1 ('Ich will') сборка от Jul 11 2011 23:53:15

Writing library : libebml v1.2.1 + libmatroska v1.1.1

Video

ID : 1

Format : AVC

Format/Info : Advanced Video Codec

Format profile : High@L4.1

Format settings, CABAC : Yes

Format settings, ReFrames : 4 frames

Codec ID : V_MPEG4/ISO/AVC

Duration : 1h 36mn

Bit rate mode : Variable

Bit rate : 37.0 Mbps

Width : 1 920 pixels

Height : 1 080 pixels

Display aspect ratio : 16:9

Frame rate : 23.976 fps

Color space : YUV

Chroma subsampling : 4:2:0

Bit depth : 8 bits

Scan type : Progressive

Bits/(Pixel*Frame) : 0.744

Stream size : 24.9 GiB (90%)

Title : hdclub

Default : Yes

Forced : No

Color primaries : BT.709-5, BT.1361, IEC 61966-2-4, SMPTE RP177

Transfer characteristics : BT.709-5, BT.1361

Matrix coefficients : BT.709-5, BT.1361, IEC 61966-2-4 709, SMPTE RP177

Audio #1

ID : 2

Format : DTS

Format/Info : Digital Theater Systems

Format profile : MA / Core

Codec ID : A_DTS

Duration : 1h 36mn

Bit rate mode : Variable

Bit rate : 1 666 Kbps / 1 510 Kbps

Channel(s) : 6 channels

Channel positions : Front: L C R, Side: L R, LFE

Sampling rate : 48.0 KHz

Bit depth : 24 bits

Compression mode : Lossless / Lossy

Title : Юрий Сербин

Language : Russian

Default : Yes

Forced : No

Audio #2

ID : 3

Format : AC-3

Format/Info : Audio Coding 3

Mode extension : CM (complete main)

Format settings, Endianness : Big

Codec ID : A_AC3

Duration : 1h 36mn

Bit rate mode : Constant

Bit rate : 192 Kbps

Channel(s) : 2 channels

Channel positions : Front: L R

Sampling rate : 48.0 KHz

Bit depth : 16 bits

Compression mode : Lossy

Stream size : 132 MiB (0%)

Title : VO

Language : Russian

Default : No

Forced : No

Audio #3

ID : 4

Format : DTS

Format/Info : Digital Theater Systems

Format profile : MA / Core

Codec ID : A_DTS

Duration : 1h 36mn

Bit rate mode : Variable

Bit rate : 1 561 Kbps / 1 510 Kbps

Channel(s) : 6 channels

Channel positions : Front: L C R, Side: L R, LFE

Sampling rate : 48.0 KHz

Bit depth : 24 bits

Compression mode : Lossless / Lossy

Language : English

Default : No

Forced : No

Text #1

ID : 5

Format : UTF-8

Codec ID : S_TEXT/UTF8

Codec ID/Info : UTF-8 Plain Text

Language : Russian

Default : No

Forced : No

Text #2

ID : 6

Format : UTF-8

Codec ID : S_TEXT/UTF8

Codec ID/Info : UTF-8 Plain Text

Title : SRT

Language : English

Default : No

Forced : No

Text #3

ID : 7

Format : PGS

Muxing mode : zlib

Codec ID : S_HDMV/PGS

Codec ID/Info : The same subtitle format used on BDs/HD-DVDs

Title : PGS

Language : English

Default : No

Forced : No

Menu

00:00:00.000 : en:Northern Ireland, 1981

00:02:11.923 : en:Guard

00:09:20.143 : en:Davey Gillen

00:16:23.232 : en:The Maze

00:25:33.657 : en:"No wash" protest

00:31:12.996 : en:Bobby Sands

00:35:11.318 : en:"Negotiate"

00:38:04.741 : en:Mirror check

00:43:45.164 : en:Daisies

00:45:36.400 : en:Father Dominic

00:54:45.157 : en:"Business of the soul"

01:03:10.328 : en:Story of the foal

01:09:59.070 : en:Sweeping the Hall

01:13:39.874 : en:Hunger Strike

01:19:40.401 : en:Visitors

01:27:14.354 : en:Last Breath

01:31:34.739 : en:End Credits
pb.wtf



Скачать Голод через торрент http://img.lostpic.net/orig_images/a/a/a/aaab7fc0d8c58fa537cc2ccd0142d458.png Скачать фильм Голод через торрент бесплантно в хорошем качестве Описание: Фильм рассказывает о борьбе заключённых из Ирландской республиканской армии за признание за собой статуса политических. Сначала ... 10 10 4
Info! Золотая раздача, скачанное не засчитывается.
Торрент: Зарегистрирован [2014-11-28 14:50] · скачан: 19 раз
Статус: √ проверено
Размер: 27.74 GB
Как cкачать? Как скачать Голод через торрент | qTorrent

% Раздел Тема Автор DL S | L
Ultra HD (UHD: 2K, 4K, 8K) — видео сверхвысокой чёткости [ 80.49 GB ] Голодные игры: И вспыхнет пламя / The Hunger Games: Catching Fire [2013 UHD BDRemux 2160p] DUB + 2xAVO sheker187 Скачать
1 | 0
Ultra HD (UHD: 2K, 4K, 8K) — видео сверхвысокой чёткости [ 58.83 GB ] Голодные игры / The Hunger Games [2012 UHD BDRemux 2160p] DUB + AVO [А. Матвеев] sheker187 Скачать
1 | 0
Ultra HD (UHD: 2K, 4K, 8K) — видео сверхвысокой чёткости [ 76.91 GB ] Голодные игры: Сойка-пересмешница. Часть I / The Hunger Games: Mockingjay - Part 1 [2014 UHD BDRemux 2160p] DUB+2xAVO [] bober100 Скачать
1 | 1
Фильмы [HD 720p, 1080p] (Хороший звук DUB, MVO) [ 7.88 GB ] Голод / The Hunger [1983 BDRip 1080p от еnvy / NNNB] MVO AVO еnvy Скачать
4 | 0
Фильмы (Blu-ray, BD-Remux, HDDVD) [ 27.43 GB ] Голодные игры: Сойка-пересмешница. Часть I / The Hunger Games: Mockingjay - Part 1 [2014 BDRemux 1080p |DUB+AVO- Матвеев] Ворон Скачать
1 | 0
Сборники (HD Video) [ 23.16 GB ] Голодные игры: Трилогия / The Hunger Games: Trilogy [2012-2014г BDRip 720p] DUB AVO potroks Скачать
1 | 0
Фильмы [HD 720p, 1080p] (Хороший звук DUB, MVO) [ 7.29 GB ] Голод / The Hunger [1983 BDRip 1080p by msltel] MVO DVO AVO msltel Скачать
1 | 0

28-11-2019 20:33  

Отключить всю рекламу на сайте

28-11-2014 17:06 Голод Скачать торрент  

Фильм просто БОМБА!!! Иначе и не скажешь! Фассбендер "крошит" в этом фильме так, что мороз по коже... особенно к концу. И легендарный диолог со священником, снятый одним дублем. Плохо что перевода нормального нет к нему =(pb.wtf



    Дорогой пользователь! Огромная просьба, поблагодарите релизера, оцените раздачу и оставьте свои комментарий, если Вы скачали Голод через торрент бесплатно! Внесите свою лепту в развитие PiratBit!
    Комментировать посты могут только пользователи прошедшие не сложную регистрацию
    Показать сообщения:    

    Голод через торрент
    Скачать бесплатно Голод
    Голод скачать торрент
    Голод смотреть онлайн
    Cкачать фильм Голод бесплатно
    Голод скачать торрент в хорошем качестве
    Голод смотреть онлайн бесплатно в хорошем качестве


    Вы не можете начинать темы
    Вы не можете отвечать на сообщения
    Вы не можете редактировать свои сообщения
    Вы не можете удалять свои сообщения
    Вы не можете голосовать в опросах
    Вы не можете прикреплять файлы к сообщениям
    Вы можете скачивать файлы